  0
SECTION
  2
HEADER
  9
$ACADVER
  1
AC1018
  9
$ACADMAINTVER
 70
     0
  9
$DWGCODEPAGE
  3
ANSI_1252
  9
$INSBASE
 10
0.0
 20
0.0
 30
0.0
  9
$EXTMIN
 10
-1220.855230934664
 20
-1135.796450018759
 30
0.0
  9
$EXTMAX
 10
-923.8552309346655
 20
-925.7964500187586
 30
0.0
  9
$LIMMIN
 10
0.0
 20
0.0
  9
$LIMMAX
 10
12.0
 20
9.0
  9
$ORTHOMODE
 70
     0
  9
$REGENMODE
 70
     1
  9
$FILLMODE
 70
     1
  9
$QTEXTMODE
 70
     0
  9
$MIRRTEXT
 70
     1
  9
$LTSCALE
 40
1.0
  9
$ATTMODE
 70
     1
  9
$TEXTSIZE
 40
0.2
  9
$TRACEWID
 40
0.05
  9
$TEXTSTYLE
  7
Standard
  9
$CLAYER
  8
0
  9
$CELTYPE
  6
ByLayer
  9
$CECOLOR
 62
   256
  9
$CELTSCALE
 40
1.0
  9
$DISPSILH
 70
     0
  9
$DIMSCALE
 40
1.0
  9
$DIMASZ
 40
0.18
  9
$DIMEXO
 40
0.0625
  9
$DIMDLI
 40
0.38
  9
$DIMRND
 40
0.0
  9
$DIMDLE
 40
0.0
  9
$DIMEXE
 40
0.18
  9
$DIMTP
 40
0.0
  9
$DIMTM
 40
0.0
  9
$DIMTXT
 40
0.18
  9
$DIMCEN
 40
0.09
  9
$DIMTSZ
 40
0.0
  9
$DIMTOL
 70
     0
  9
$DIMLIM
 70
     0
  9
$DIMTIH
 70
     1
  9
$DIMTOH
 70
     1
  9
$DIMSE1
 70
     0
  9
$DIMSE2
 70
     0
  9
$DIMTAD
 70
     0
  9
$DIMZIN
 70
     0
  9
$DIMBLK
  1

  9
$DIMASO
 70
     1
  9
$DIMSHO
 70
     1
  9
$DIMPOST
  1

  9
$DIMAPOST
  1

  9
$DIMALT
 70
     0
  9
$DIMALTD
 70
     2
  9
$DIMALTF
 40
25.4
  9
$DIMLFAC
 40
1.0
  9
$DIMTOFL
 70
     0
  9
$DIMTVP
 40
0.0
  9
$DIMTIX
 70
     0
  9
$DIMSOXD
 70
     0
  9
$DIMSAH
 70
     0
  9
$DIMBLK1
  1

  9
$DIMBLK2
  1

  9
$DIMSTYLE
  2
Standard
  9
$DIMCLRD
 70
     0
  9
$DIMCLRE
 70
     0
  9
$DIMCLRT
 70
     0
  9
$DIMTFAC
 40
1.0
  9
$DIMGAP
 40
0.09
  9
$DIMJUST
 70
     0
  9
$DIMSD1
 70
     0
  9
$DIMSD2
 70
     0
  9
$DIMTOLJ
 70
     1
  9
$DIMTZIN
 70
     0
  9
$DIMALTZ
 70
     0
  9
$DIMALTTZ
 70
     0
  9
$DIMUPT
 70
     0
  9
$DIMDEC
 70
     4
  9
$DIMTDEC
 70
     4
  9
$DIMALTU
 70
     2
  9
$DIMALTTD
 70
     2
  9
$DIMTXSTY
  7
Standard
  9
$DIMAUNIT
 70
     0
  9
$DIMADEC
 70
     0
  9
$DIMALTRND
 40
0.0
  9
$DIMAZIN
 70
     0
  9
$DIMDSEP
 70
    46
  9
$DIMATFIT
 70
     3
  9
$DIMFRAC
 70
     0
  9
$DIMLDRBLK
  1

  9
$DIMLUNIT
 70
     2
  9
$DIMLWD
 70
    -2
  9
$DIMLWE
 70
    -2
  9
$DIMTMOVE
 70
     0
  9
$LUNITS
 70
     2
  9
$LUPREC
 70
     4
  9
$SKETCHINC
 40
0.1
  9
$FILLETRAD
 40
0.5
  9
$AUNITS
 70
     0
  9
$AUPREC
 70
     0
  9
$MENU
  1
.
  9
$ELEVATION
 40
0.0
  9
$PELEVATION
 40
0.0
  9
$THICKNESS
 40
0.0
  9
$LIMCHECK
 70
     0
  9
$CHAMFERA
 40
0.5
  9
$CHAMFERB
 40
0.5
  9
$CHAMFERC
 40
1.0
  9
$CHAMFERD
 40
0.0
  9
$SKPOLY
 70
     0
  9
$TDCREATE
 40
2458045.306580405
  9
$TDUCREATE
 40
2458045.223247072
  9
$TDUPDATE
 40
2458045.306580845
  9
$TDUUPDATE
 40
2458045.223247512
  9
$TDINDWG
 40
0.0000000116
  9
$TDUSRTIMER
 40
0.0000000116
  9
$USRTIMER
 70
     1
  9
$ANGBASE
 50
0.0
  9
$ANGDIR
 70
     0
  9
$PDMODE
 70
     0
  9
$PDSIZE
 40
0.0
  9
$PLINEWID
 40
0.0
  9
$SPLFRAME
 70
     0
  9
$SPLINETYPE
 70
     6
  9
$SPLINESEGS
 70
     8
  9
$HANDSEED
  5
271
  9
$SURFTAB1
 70
     6
  9
$SURFTAB2
 70
     6
  9
$SURFTYPE
 70
     6
  9
$SURFU
 70
     6
  9
$SURFV
 70
     6
  9
$UCSBASE
  2

  9
$UCSNAME
  2

  9
$UCSORG
 10
0.0
 20
0.0
 30
0.0
  9
$UCSXDIR
 10
1.0
 20
0.0
 30
0.0
  9
$UCSYDIR
 10
0.0
 20
1.0
 30
0.0
  9
$UCSORTHOREF
  2

  9
$UCSORTHOVIEW
 70
     0
  9
$UCSORGTOP
 10
0.0
 20
0.0
 30
0.0
  9
$UCSORGBOTTOM
 10
0.0
 20
0.0
 30
0.0
  9
$UCSORGLEFT
 10
0.0
 20
0.0
 30
0.0
  9
$UCSORGRIGHT
 10
0.0
 20
0.0
 30
0.0
  9
$UCSORGFRONT
 10
0.0
 20
0.0
 30
0.0
  9
$UCSORGBACK
 10
0.0
 20
0.0
 30
0.0
  9
$PUCSBASE
  2

  9
$PUCSNAME
  2

  9
$PUCSORG
 10
0.0
 20
0.0
 30
0.0
  9
$PUCSXDIR
 10
1.0
 20
0.0
 30
0.0
  9
$PUCSYDIR
 10
0.0
 20
1.0
 30
0.0
  9
$PUCSORTHOREF
  2

  9
$PUCSORTHOVIEW
 70
     0
  9
$PUCSORGTOP
 10
0.0
 20
0.0
 30
0.0
  9
$PUCSORGBOTTOM
 10
0.0
 20
0.0
 30
0.0
  9
$PUCSORGLEFT
 10
0.0
 20
0.0
 30
0.0
  9
$PUCSORGRIGHT
 10
0.0
 20
0.0
 30
0.0
  9
$PUCSORGFRONT
 10
0.0
 20
0.0
 30
0.0
  9
$PUCSORGBACK
 10
0.0
 20
0.0
 30
0.0
  9
$USERI1
 70
     0
  9
$USERI2
 70
     0
  9
$USERI3
 70
     0
  9
$USERI4
 70
     0
  9
$USERI5
 70
     0
  9
$USERR1
 40
18.1
  9
$USERR2
 40
0.0
  9
$USERR3
 40
0.0
  9
$USERR4
 40
0.0
  9
$USERR5
 40
0.0
  9
$WORLDVIEW
 70
     1
  9
$SHADEDGE
 70
     3
  9
$SHADEDIF
 70
    70
  9
$TILEMODE
 70
     1
  9
$MAXACTVP
 70
    64
  9
$PINSBASE
 10
0.0
 20
0.0
 30
0.0
  9
$PLIMCHECK
 70
     0
  9
$PEXTMIN
 10
1.00000000000000E+20
 20
1.00000000000000E+20
 30
1.00000000000000E+20
  9
$PEXTMAX
 10
-1.00000000000000E+20
 20
-1.00000000000000E+20
 30
-1.00000000000000E+20
  9
$PLIMMIN
 10
0.0
 20
0.0
  9
$PLIMMAX
 10
12.0
 20
9.0
  9
$UNITMODE
 70
     0
  9
$VISRETAIN
 70
     1
  9
$PLINEGEN
 70
     0
  9
$PSLTSCALE
 70
     1
  9
$TREEDEPTH
 70
  3020
  9
$CMLSTYLE
  2
Standard
  9
$CMLJUST
 70
     0
  9
$CMLSCALE
 40
1.0
  9
$PROXYGRAPHICS
 70
     1
  9
$MEASUREMENT
 70
     1
  9
$CELWEIGHT
370
    -1
  9
$ENDCAPS
280
     0
  9
$JOINSTYLE
280
     0
  9
$LWDISPLAY
290
     0
  9
$INSUNITS
 70
     4
  9
$HYPERLINKBASE
  1

  9
$STYLESHEET
  1

  9
$XEDIT
290
     1
  9
$CEPSNTYPE
380
     0
  9
$PSTYLEMODE
290
     1
  9
$FINGERPRINTGUID
  2
{C0D9CF43-2AAF-47B5-8218-C9FA1D9498DB}
  9
$VERSIONGUID
  2
{FAEB1C32-E019-11D5-929B-00C0DF256EC4}
  9
$EXTNAMES
290
     1
  9
$PSVPSCALE
 40
0.0
  9
$OLESTARTUP
290
     0
  9
$SORTENTS
280
   127
  9
$INDEXCTL
280
     0
  9
$HIDETEXT
280
     1
  9
$XCLIPFRAME
290
     0
  9
$HALOGAP
280
     0
  9
$OBSCOLOR
 70
   257
  9
$OBSLTYPE
280
     0
  9
$INTERSECTIONDISPLAY
280
     0
  9
$INTERSECTIONCOLOR
 70
   257
  9
$DIMASSOC
280
     2
  9
$PROJECTNAME
  1

  0
ENDSEC
  0
SECTION
  2
CLASSES
  0
CLASS
  1
ACDBDICTIONARYWDFLT
  2
AcDbDictionaryWithDefault
  3
ObjectDBX Classes
 90
        0
 91
        4
280
     0
281
     0
  0
CLASS
  1
VISUALSTYLE
  2
AcDbVisualStyle
  3
ObjectDBX Classes
 90
     4095
 91
        4
280
     0
281
     0
  0
CLASS
  1
MATERIAL
  2
AcDbMaterial
  3
ObjectDBX Classes
 90
     1153
 91
        4
280
     0
281
     0
  0
ENDSEC
  0
SECTION
  2
TABLES
  0
TABLE
  2
VPORT
  5
8
330
0
100
AcDbSymbolTable
 70
     1
  0
VPORT
  5
29
330
8
100
AcDbSymbolTableRecord
100
AcDbViewportTableRecord
  2
*Active
 70
     0
 10
0.0
 20
0.0
 11
1.0
 21
1.0
 12
-1072.355230934665
 22
-1030.796450018759
 13
0.0
 23
0.0
 14
0.5
 24
0.5
 15
0.5
 25
0.5
 16
0.0
 26
0.0
 36
1.0
 17
0.0
 27
0.0
 37
0.0
 40
231.0000000000005
 41
1.60267857142857
 42
50.0
 43
0.0
 44
0.0
 50
0.0
 51
0.0
 71
     0
 72
   100
 73
     1
 74
     3
 75
     0
 76
     0
 77
     0
 78
     0
281
     0
 65
     1
110
0.0
120
0.0
130
0.0
111
1.0
121
0.0
131
0.0
112
0.0
122
1.0
132
0.0
 79
     0
146
0.0
  0
ENDTAB
  0
TABLE
  2
LTYPE
  5
5
330
0
100
AcDbSymbolTable
 70
     8
  0
LTYPE
  5
14
330
5
100
AcDbSymbolTableRecord
100
AcDbLinetypeTableRecord
  2
ByBlock
 70
     0
  3

 72
    65
 73
     0
 40
0.0
  0
LTYPE
  5
15
330
5
100
AcDbSymbolTableRecord
100
AcDbLinetypeTableRecord
  2
ByLayer
 70
     0
  3

 72
    65
 73
     0
 40
0.0
  0
LTYPE
  5
16
330
5
100
AcDbSymbolTableRecord
100
AcDbLinetypeTableRecord
  2
Continuous
 70
     0
  3
Solid line
 72
    65
 73
     0
 40
0.0
  0
LTYPE
  5
3F
330
5
100
AcDbSymbolTableRecord
100
AcDbLinetypeTableRecord
  2
DASHED
 70
     0
  3
Dashed
 72
    65
 73
     2
 40
15.0
 49
7.0
 74
     0
 49
-8.0
 74
     0
  0
LTYPE
  5
40
330
5
100
AcDbSymbolTableRecord
100
AcDbLinetypeTableRecord
  2
DOTTED
 70
     0
  3
Dotted
 72
    65
 73
     2
 40
1.0
 49
0.0
 74
     0
 49
-1.0
 74
     0
  0
LTYPE
  5
41
330
5
100
AcDbSymbolTableRecord
100
AcDbLinetypeTableRecord
  2
DOT_CENTER
 70
     0
  3
Dot_Center
 72
    65
 73
     4
 40
14.0
 49
12.0
 74
     0
 49
-1.0
 74
     0
 49
0.0
 74
     0
 49
-1.0
 74
     0
  0
LTYPE
  5
42
330
5
100
AcDbSymbolTableRecord
100
AcDbLinetypeTableRecord
  2
LONG_DASHED
 70
     0
  3
Long_Dashed
 72
    65
 73
     2
 40
15.0
 49
10.0
 74
     0
 49
-5.0
 74
     0
  0
LTYPE
  5
43
330
5
100
AcDbSymbolTableRecord
100
AcDbLinetypeTableRecord
  2
DASH_CENTER
 70
     0
  3
Dash_Center
 72
    65
 73
     4
 40
14.0
 49
11.0
 74
     0
 49
-1.0
 74
     0
 49
1.0
 74
     0
 49
-1.0
 74
     0
  0
LTYPE
  5
44
330
5
100
AcDbSymbolTableRecord
100
AcDbLinetypeTableRecord
  2
PHANTOM
 70
     0
  3
Phantom
 72
    65
 73
     6
 40
13.0
 49
10.0
 74
     0
 49
-1.0
 74
     0
 49
0.0
 74
     0
 49
-1.0
 74
     0
 49
0.0
 74
     0
 49
-1.0
 74
     0
  0
LTYPE
  5
45
330
5
100
AcDbSymbolTableRecord
100
AcDbLinetypeTableRecord
  2
CENTER_DASH_DASH
 70
     0
  3
Center_Dash_Dash
 72
    65
 73
     6
 40
14.0
 49
9.0
 74
     0
 49
-1.0
 74
     0
 49
1.0
 74
     0
 49
-1.0
 74
     0
 49
1.0
 74
     0
 49
-1.0
 74
     0
  0
ENDTAB
  0
TABLE
  2
LAYER
  5
2
330
0
100
AcDbSymbolTable
 70
     2
  0
LAYER
  5
10
330
2
100
AcDbSymbolTableRecord
100
AcDbLayerTableRecord
  2
0
 70
     0
 62
     7
  6
Continuous
370
    -3
390
F
  0
LAYER
  5
46
330
2
100
AcDbSymbolTableRecord
100
AcDbLayerTableRecord
  2
1
 70
     0
 62
     7
  6
Continuous
370
    -3
390
F
  0
ENDTAB
  0
TABLE
  2
STYLE
  5
3
330
0
100
AcDbSymbolTable
 70
     5
  0
STYLE
  5
11
330
3
100
AcDbSymbolTableRecord
100
AcDbTextStyleTableRecord
  2
Standard
 70
     0
 40
0.0
 41
1.0
 50
0.0
 71
     0
 42
0.2
  3
txt
  4

  0
STYLE
  5
A1
330
3
100
AcDbSymbolTableRecord
100
AcDbTextStyleTableRecord
  2
CONVERTER_11
 70
     0
 40
0.0
 41
0.9
 50
0.0
 71
     0
 42
0.2
  3
txt.shx
  4

  0
STYLE
  5
20C
330
3
100
AcDbSymbolTableRecord
100
AcDbTextStyleTableRecord
  2
CONVERTER_12
 70
     0
 40
0.0
 41
0.81
 50
0.0
 71
     0
 42
0.2
  3
txt.shx
  4

  0
STYLE
  5
222
330
3
100
AcDbSymbolTableRecord
100
AcDbTextStyleTableRecord
  2
CONVERTER_13
 70
     0
 40
0.0
 41
0.72
 50
0.0
 71
     0
 42
0.2
  3
txt.shx
  4

  0
STYLE
  5
225
330
3
100
AcDbSymbolTableRecord
100
AcDbTextStyleTableRecord
  2
CONVERTER_14
 70
     0
 40
0.0
 41
0.855
 50
0.0
 71
     0
 42
0.2
  3
txt.shx
  4

  0
ENDTAB
  0
TABLE
  2
VIEW
  5
6
330
0
100
AcDbSymbolTable
 70
     0
  0
ENDTAB
  0
TABLE
  2
UCS
  5
7
330
0
100
AcDbSymbolTable
 70
     0
  0
ENDTAB
  0
TABLE
  2
APPID
  5
9
330
0
100
AcDbSymbolTable
 70
     1
  0
APPID
  5
12
330
9
100
AcDbSymbolTableRecord
100
AcDbRegAppTableRecord
  2
ACAD
 70
     0
  0
ENDTAB
  0
TABLE
  2
DIMSTYLE
  5
A
330
0
100
AcDbSymbolTable
 70
     5
100
AcDbDimStyleTable
  0
DIMSTYLE
105
27
330
A
100
AcDbSymbolTableRecord
100
AcDbDimStyleTableRecord
  2
Standard
 70
     0
178
     0
340
11
  0
DIMSTYLE
105
B9
102
{ACAD_REACTORS
330
BA
102
}
330
A
100
AcDbSymbolTableRecord
100
AcDbDimStyleTableRecord
  2
ME10_DIM_10
 70
     0
 41
1.75
 42
0.25
 44
0.75
 73
     0
 74
     0
 77
     1
 78
     8
140
1.75
147
1.0
172
     1
173
     1
174
     1
175
     1
176
     2
177
     2
271
     1
178
     3
271
     1
340
A1
  0
DIMSTYLE
105
EB
102
{ACAD_REACTORS
330
EC
102
}
330
A
100
AcDbSymbolTableRecord
100
AcDbDimStyleTableRecord
  2
ME10_DIM_11
 70
     0
 41
1.75
 42
0.25
 44
0.75
 73
     0
 74
     0
 77
     1
 78
     8
140
1.75
147
1.0
172
     1
173
     1
174
     1
175
     1
176
     2
177
     2
271
     1
178
     3
271
     1
340
A1
  0
DIMSTYLE
105
103
102
{ACAD_REACTORS
330
104
102
}
330
A
100
AcDbSymbolTableRecord
100
AcDbDimStyleTableRecord
  2
ME10_DIM_12
 70
     0
 41
1.75
 42
0.25
 44
0.75
 73
     0
 74
     0
 77
     1
 78
     8
140
1.75
147
1.0
172
     1
173
     1
174
     1
175
     1
176
     2
177
     2
271
     1
178
     3
271
     1
340
A1
  0
DIMSTYLE
105
10E
102
{ACAD_REACTORS
330
10F
102
}
330
A
100
AcDbSymbolTableRecord
100
AcDbDimStyleTableRecord
  2
ME10_DIM_13
 70
     0
  3
 {\Fgdt;n}<>
 41
1.75
 42
0.25
 44
0.75
 73
     0
 74
     0
 77
     1
 78
     8
140
1.75
147
1.0
172
     1
173
     1
174
     1
175
     1
176
     2
177
     2
271
     1
178
     3
271
     1
340
A1
  0
ENDTAB
  0
TABLE
  2
BLOCK_RECORD
  5
1
330
0
100
AcDbSymbolTable
 70
    21
  0
BLOCK_RECORD
  5
1F
330
1
100
AcDbSymbolTableRecord
100
AcDbBlockTableRecord
  2
*Model_Space
340
22
  0
BLOCK_RECORD
  5
1B
330
1
100
AcDbSymbolTableRecord
100
AcDbBlockTableRecord
  2
*Paper_Space
340
1E
  0
BLOCK_RECORD
  5
23
330
1
100
AcDbSymbolTableRecord
100
AcDbBlockTableRecord
  2
*Paper_Space0
340
26
  0
BLOCK_RECORD
  5
47
330
1
100
AcDbSymbolTableRecord
100
AcDbBlockTableRecord
  2
C_RC_10_M8_DIN-select__1
340
0
102
{BLKREFS
331
4B
102
}
  0
BLOCK_RECORD
  5
4A
330
1
100
AcDbSymbolTableRecord
100
AcDbBlockTableRecord
  2
Allg1
340
0
102
{BLKREFS
331
7D
102
}
  0
BLOCK_RECORD
  5
4E
330
1
100
AcDbSymbolTableRecord
100
AcDbBlockTableRecord
  2
C_RC_10_M8_DIN-select__2
340
0
102
{BLKREFS
331
52
102
}
  0
BLOCK_RECORD
  5
51
330
1
100
AcDbSymbolTableRecord
100
AcDbBlockTableRecord
  2
Drfsicht1
340
0
102
{BLKREFS
331
7E
102
}
  0
BLOCK_RECORD
  5
55
330
1
100
AcDbSymbolTableRecord
100
AcDbBlockTableRecord
  2
C_RC_10_M8_DIN-select__3
340
0
102
{BLKREFS
331
59
102
}
  0
BLOCK_RECORD
  5
58
330
1
100
AcDbSymbolTableRecord
100
AcDbBlockTableRecord
  2
Rckans1
340
0
102
{BLKREFS
331
7F
102
}
  0
BLOCK_RECORD
  5
5C
330
1
100
AcDbSymbolTableRecord
100
AcDbBlockTableRecord
  2
C_RC_10_M8_DIN-select__4
340
0
102
{BLKREFS
331
60
102
}
  0
BLOCK_RECORD
  5
5F
330
1
100
AcDbSymbolTableRecord
100
AcDbBlockTableRecord
  2
SA_Links1
340
0
102
{BLKREFS
331
80
102
}
  0
BLOCK_RECORD
  5
63
330
1
100
AcDbSymbolTableRecord
100
AcDbBlockTableRecord
  2
C_RC_10_M8_DIN-select__5
340
0
102
{BLKREFS
331
67
102
}
  0
BLOCK_RECORD
  5
66
330
1
100
AcDbSymbolTableRecord
100
AcDbBlockTableRecord
  2
SA_Rechts1
340
0
102
{BLKREFS
331
81
102
}
  0
BLOCK_RECORD
  5
6A
330
1
100
AcDbSymbolTableRecord
100
AcDbBlockTableRecord
  2
C_RC_10_M8_DIN-select__6
340
0
102
{BLKREFS
331
6E
102
}
  0
BLOCK_RECORD
  5
6D
330
1
100
AcDbSymbolTableRecord
100
AcDbBlockTableRecord
  2
Vordans1
340
0
102
{BLKREFS
331
82
102
}
  0
BLOCK_RECORD
  5
71
330
1
100
AcDbSymbolTableRecord
100
AcDbBlockTableRecord
  2
_rahmen
340
0
102
{BLKREFS
331
78
102
}
  0
BLOCK_RECORD
  5
74
330
1
100
AcDbSymbolTableRecord
100
AcDbBlockTableRecord
  2
_punkt
340
0
102
{BLKREFS
331
79
102
}
  0
BLOCK_RECORD
  5
77
330
1
100
AcDbSymbolTableRecord
100
AcDbBlockTableRecord
  2
A4I_CS
340
0
102
{BLKREFS
331
83
102
}
  0
BLOCK_RECORD
  5
7C
330
1
100
AcDbSymbolTableRecord
100
AcDbBlockTableRecord
  2
1
340
0
102
{BLKREFS
331
86
102
}
  0
BLOCK_RECORD
  5
B0
330
1
100
AcDbSymbolTableRecord
100
AcDbBlockTableRecord
  2
*D17
340
0
  0
BLOCK_RECORD
  5
E2
330
1
100
AcDbSymbolTableRecord
100
AcDbBlockTableRecord
  2
*D18
340
0
  0
BLOCK_RECORD
  5
FA
330
1
100
AcDbSymbolTableRecord
100
AcDbBlockTableRecord
  2
*D19
340
0
  0
BLOCK_RECORD
  5
105
330
1
100
AcDbSymbolTableRecord
100
AcDbBlockTableRecord
  2
*D20
340
0
  0
ENDTAB
  0
ENDSEC
  0
SECTION
  2
BLOCKS
  0
BLOCK
  5
20
330
1F
100
AcDbEntity
  8
0
100
AcDbBlockBegin
  2
*Model_Space
 70
     0
 10
0.0
 20
0.0
 30
0.0
  3
*Model_Space
  1

  0
ENDBLK
  5
21
330
1F
100
AcDbEntity
  8
0
100
AcDbBlockEnd
  0
BLOCK
  5
1C
330
1B
100
AcDbEntity
 67
     1
  8
0
100
AcDbBlockBegin
  2
*Paper_Space
 70
     0
 10
0.0
 20
0.0
 30
0.0
  3
*Paper_Space
  1

  0
ENDBLK
  5
1D
330
1B
100
AcDbEntity
 67
     1
  8
0
100
AcDbBlockEnd
  0
BLOCK
  5
24
330
23
100
AcDbEntity
  8
0
100
AcDbBlockBegin
  2
*Paper_Space0
 70
     0
 10
0.0
 20
0.0
 30
0.0
  3
*Paper_Space0
  1

  0
ENDBLK
  5
25
330
23
100
AcDbEntity
  8
0
100
AcDbBlockEnd
  0
BLOCK
  5
48
330
47
100
AcDbEntity
  8
0
100
AcDbBlockBegin
  2
C_RC_10_M8_DIN-select__1
 70
     0
 10
-508.0250572054353
 20
-549.390849255968
 30
0.0
  3
C_RC_10_M8_DIN-select__1
  1

  0
LINE
  5
87
330
47
100
AcDbEntity
  8
0
  6
Continuous
 62
     2
100
AcDbLine
 10
-496.1273273054511
 20
-532.9372045504767
 30
0.0
 11
-495.5773273054512
 21
-532.4608905783954
 31
0.0
  0
LINE
  5
88
330
47
100
AcDbEntity
  8
0
  6
Continuous
 62
     7
100
AcDbLine
 10
-505.9059192631174
 20
-523.5784817461312
 30
0.0
 11
-506.4559192631173
 21
-524.0547957182126
 31
0.0
  0
LINE
  5
89
330
47
100
AcDbEntity
  8
0
  6
Continuous
 62
     7
100
AcDbLine
 10
-501.8733435681613
 20
-539.7386031857552
 30
0.0
 11
-504.0227620941815
 21
-539.1181195034557
 31
0.0
  0
LINE
  5
8A
330
47
100
AcDbEntity
  8
0
  6
Continuous
 62
     7
100
AcDbLine
 10
-498.9721584654835
 20
-540.5761031857551
 30
0.0
 11
-498.4221584654835
 21
-540.0997892136737
 31
0.0
  0
LINE
  5
8B
330
47
100
AcDbEntity
  8
0
  6
Continuous
 62
     7
100
AcDbLine
 10
-498.9721584654835
 20
-540.5761031857551
 30
0.0
 11
-499.7239250421408
 21
-540.3590868680546
 31
0.0
  0
LINE
  5
8C
330
47
100
AcDbEntity
  8
0
  6
Continuous
 62
     7
100
AcDbLine
 10
-496.1273273054511
 20
-532.9372045504767
 30
0.0
 11
-498.9721584654835
 21
-540.5761031857551
 31
0.0
  0
LINE
  5
8D
330
47
100
AcDbEntity
  8
0
  6
Continuous
 62
     7
100
AcDbLine
 10
-498.4221584654835
 20
-540.0997892136737
 30
0.0
 11
-495.5773273054512
 21
-532.4608905783954
 31
0.0
  0
LINE
  5
8E
330
47
100
AcDbEntity
  8
0
  6
Continuous
 62
     7
100
AcDbLine
 10
-504.0227620941815
 20
-539.1181195034557
 30
0.0
 11
-504.7745286708392
 21
-538.9011031857551
 31
0.0
  0
LINE
  5
8F
330
47
100
AcDbEntity
  8
0
  6
Continuous
 62
     7
100
AcDbLine
 10
-504.7745286708392
 20
-538.9011031857551
 30
0.0
 11
-507.6193598308718
 21
-529.6197405144331
 31
0.0
  0
LINE
  5
90
330
47
100
AcDbEntity
  8
0
  6
Continuous
 62
     7
100
AcDbLine
 10
-506.3483435681613
 20
-540.7128817650128
 30
0.0
 11
-506.3483435681612
 21
-547.6410849952883
 31
0.0
  0
LINE
  5
91
330
47
100
AcDbEntity
  8
0
  6
Continuous
 62
     7
100
AcDbLine
 10
-499.7239250421408
 20
-540.3590868680546
 30
0.0
 11
-501.8733435681613
 21
-539.7386031857552
 31
0.0
  0
LINE
  5
92
330
47
100
AcDbEntity
  8
0
  6
Continuous
 62
     7
100
AcDbLine
 10
-499.6483435681613
 20
-540.7128817650126
 30
0.0
 11
-499.6483435681612
 21
-547.6410849952882
 31
0.0
  0
ARC
  5
93
330
47
100
AcDbEntity
  8
0
  6
Continuous
 62
     7
100
AcDbCircle
 10
-500.5412926078195
 20
-540.7186724376945
 30
0.0
 40
0.8929678153867838
100
AcDbArc
 50
0.3715513872757
 51
23.74619627918993
  0
SPLINE
  5
94
330
47
100
AcDbEntity
  8
0
  6
Continuous
 62
     7
100
AcDbSpline
210
0.0
220
0.0
230
1.0
 70
     8
 71
     3
 72
    11
 73
     7
 74
     5
 42
0.000000001
 43
0.0000000001
 44
0.00000001
 40
0.0
 40
0.0
 40
0.0
 40
0.0
 40
1.367516921884441
 40
2.800305352239906
 40
4.339882932402249
 40
5.994793498327146
 40
5.994793498327146
 40
5.994793498327146
 40
5.994793498327146
 10
-506.4559192631173
 20
-524.0547957182126
 30
0.0
 10
-506.7711919859316
 20
-524.3904654342216
 30
0.0
 10
-507.4167853700297
 20
-525.0778263726484
 30
0.0
 10
-507.8919768975073
 20
-526.4822876194862
 30
0.0
 10
-508.0015552817529
 20
-528.0396643475261
 30
0.0
 10
-507.7497882305756
 20
-529.0805221710845
 30
0.0
 10
-507.6193598308718
 20
-529.6197405144331
 30
0.0
 11
-506.4559192631173
 21
-524.0547957182126
 31
0.0
 11
-507.320897815687
 21
-525.1140004396906
 31
0.0
 11
-507.821016771663
 21
-526.4566708109869
 31
0.0
 11
-507.9227739600907
 21
-527.9928819318781
 31
0.0
 11
-507.6193598308718
 21
-529.6197405144331
 31
0.0
  0
SPLINE
  5
95
330
47
100
AcDbEntity
  8
0
  6
Continuous
 62
     7
100
AcDbSpline
210
0.0
220
0.0
230
1.0
 70
     8
 71
     3
 72
    13
 73
     9
 74
     7
 42
0.000000001
 43
0.0000000001
 44
0.00000001
 40
0.0
 40
0.0
 40
0.0
 40
0.0
 40
1.544956699547376
 40
3.210116212317017
 40
4.889277833929398
 40
6.469890569098137
 40
7.886980187307299
 40
9.172657559787417
 40
9.172657559787417
 40
9.172657559787417
 40
9.172657559787417
 10
-498.2360368722668
 20
-530.3962983403418
 30
0.0
 10
-498.299624630587
 20
-529.8800859235886
 30
0.0
 10
-498.4317475027323
 20
-528.807498035481
 30
0.0
 10
-499.3101943202415
 20
-527.3833808965471
 30
0.0
 10
-500.5269608986782
 20
-526.2499285954897
 30
0.0
 10
-501.9603482111328
 20
-525.5937822920678
 30
0.0
 10
-503.4613053047383
 20
-525.4664487037658
 30
0.0
 10
-504.2484518084356
 20
-525.9441563425744
 30
0.0
 10
-504.622888985135
 20
-526.1713967670643
 30
0.0
 11
-498.2360368722668
 21
-530.3962983403418
 31
0.0
 11
-498.5297894595325
 21
-528.8795252466188
 31
0.0
 11
-499.3635549565985
 21
-527.4381400450513
 31
0.0
 11
-500.6027066142368
 21
-526.3049644518662
 31
0.0
 11
-502.0470771307587
 21
-525.6629905887658
 31
0.0
 11
-503.4633858489368
 21
-525.61595208426
 31
0.0
 11
-504.622888985135
 21
-526.1713967670643
 31
0.0
  0
SPLINE
  5
96
330
47
100
AcDbEntity
  8
0
  6
Continuous
 62
     7
100
AcDbSpline
210
0.0
220
0.0
230
1.0
 70
     8
 71
     3
 72
     9
 73
     5
 74
     3
 42
0.000000001
 43
0.0000000001
 44
0.00000001
 40
0.0
 40
0.0
 40
0.0
 40
0.0
 40
1.131775357841513
 40
2.357867166271479
 40
2.357867166271479
 40
2.357867166271479
 40
2.357867166271479
 10
-499.123798151188
 20
-532.5211999136193
 30
0.0
 10
-498.8685012845121
 20
-532.2297075926878
 30
0.0
 10
-498.3366324144785
 20
-531.6224314412354
 30
0.0
 10
-498.2704511467279
 20
-530.8157651279652
 30
0.0
 10
-498.2360368722668
 20
-530.3962983403418
 30
0.0
 11
-499.123798151188
 21
-532.5211999136193
 31
0.0
 11
-498.4652018143236
 21
-531.6007835238537
 31
0.0
 11
-498.2360368722668
 21
-530.3962983403418
 31
0.0
  0
SPLINE
  5
97
330
47
100
AcDbEntity
  8
0
  6
Continuous
 62
     7
100
AcDbSpline
210
0.0
220
0.0
230
1.0
 70
     8
 71
     3
 72
    13
 73
     9
 74
     7
 42
0.000000001
 43
0.0000000001
 44
0.00000001
 40
0.0
 40
0.0
 40
0.0
 40
0.0
 40
1.672493316450897
 40
3.594093054451884
 40
5.736067692543497
 40
7.878042330635136
 40
9.799642068636135
 40
11.47213538508708
 40
11.47213538508708
 40
11.47213538508708
 40
11.47213538508708
 10
-504.622888985135
 20
-526.1713967670643
 30
0.0
 10
-504.9624524706301
 20
-526.6365313481872
 30
0.0
 10
-505.692155084066
 20
-527.6360791267075
 30
0.0
 10
-505.4082685509192
 20
-529.6813579570193
 30
0.0
 10
-504.3574599221041
 20
-531.4976062088125
 30
0.0
 10
-502.7099558683553
 20
-532.7971010642912
 30
0.0
 10
-500.7262100303791
 20
-533.3702585537615
 30
0.0
 10
-499.6326710644656
 20
-532.7908328073289
 30
0.0
 10
-499.123798151188
 20
-532.5211999136193
 30
0.0
 11
-504.622888985135
 21
-526.1713967670643
 31
0.0
 11
-505.4450467094206
 21
-527.6278618652823
 31
0.0
 11
-505.3102753393783
 21
-529.5447296886716
 31
0.0
 11
-504.2544789956676
 21
-531.4084221104132
 31
0.0
 11
-502.5607299224048
 21
-532.7196312619492
 31
0.0
 11
-500.6827758544084
 21
-533.1268585854727
 31
0.0
 11
-499.123798151188
 21
-532.5211999136193
 31
0.0
  0
SPLINE
  5
98
330
47
100
AcDbEntity
  8
0
  6
Continuous
 62
     7
100
AcDbSpline
210
0.0
220
0.0
230
1.0
 70
     8
 71
     3
 72
    13
 73
     9
 74
     7
 42
0.000000001
 43
0.0000000001
 44
0.00000001
 40
0.0
 40
0.0
 40
0.0
 40
0.0
 40
1.513243174342775
 40
3.245418805931294
 40
5.387393443708714
 40
7.529368081486041
 40
9.26153173010321
 40
10.77476503871487
 40
10.77476503871487
 40
10.77476503871487
 40
10.77476503871487
 10
-504.3296054475446
 20
-525.9545392074508
 30
0.0
 10
-504.5809826950239
 20
-526.4058953629285
 30
0.0
 10
-505.1201058445341
 20
-527.3739088247834
 30
0.0
 10
-504.8268330007595
 20
-529.2540304610429
 30
0.0
 10
-503.809023706506
 20
-531.0226463792085
 30
0.0
 10
-502.2039519403073
 20
-532.2826735553192
 30
0.0
 10
-500.3850201771862
 20
-532.8415261229104
 30
0.0
 10
-499.3499222316705
 20
-532.446230824082
 30
0.0
 10
-498.8672864543564
 20
-532.2619162264951
 30
0.0
 11
-504.3296054475446
 21
-525.9545392074508
 31
0.0
 11
-504.928117779502
 21
-527.3443909629968
 31
0.0
 11
-504.7602753393785
 21
-529.0684157165903
 31
0.0
 11
-503.7044789956677
 21
-530.9321081383318
 31
0.0
 11
-502.0107299224049
 21
-532.2433172898677
 31
0.0
 11
-500.3283777579612
 21
-532.6557274224083
 31
0.0
 11
-498.8672864543564
 21
-532.2619162264951
 31
0.0
  0
SPLINE
  5
99
330
47
100
AcDbEntity
  8
0
  6
Continuous
 62
     7
100
AcDbSpline
210
0.0
220
0.0
230
1.0
 70
     8
 71
     3
 72
    13
 73
     9
 74
     7
 42
0.000000001
 43
0.0000000001
 44
0.00000001
 40
0.0
 40
0.0
 40
0.0
 40
0.0
 40
2.681307894632802
 40
5.703959199914614
 40
8.88599531481997
 40
11.94875126871992
 40
14.68477680592303
 40
17.11944871020007
 40
17.11944871020007
 40
17.11944871020007
 40
17.11944871020007
 10
-495.5773273054512
 20
-532.4608905783954
 30
0.0
 10
-495.4102766074208
 20
-531.567330396347
 30
0.0
 10
-495.0549088678184
 20
-529.6664555153717
 30
0.0
 10
-496.1907865140093
 20
-526.7908466553871
 30
0.0
 10
-498.1676218353533
 20
-524.362793062174
 30
0.0
 10
-500.765154093395
 20
-522.80113241374
 30
0.0
 10
-503.6457428994818
 20
-522.2859089381645
 30
0.0
 10
-505.1823794022764
 20
-523.1646963547266
 30
0.0
 10
-505.9059192631174
 20
-523.5784817461312
 30
0.0
 11
-495.5773273054512
 21
-532.4608905783954
 31
0.0
 11
-495.3158195302831
 21
-529.7923655712531
 31
0.0
 11
-496.2962849347843
 21
-526.9331509042233
 31
0.0
 11
-498.3161651127959
 21
-524.4744036801198
 31
0.0
 11
-500.9577381820045
 21
-522.9243824618256
 31
0.0
 11
-503.6749052848938
 21
-522.6036977024155
 31
0.0
 11
-505.9059192631174
 21
-523.5784817461312
 31
0.0
  0
SPLINE
  5
9A
330
47
100
AcDbEntity
  8
0
  6
Continuous
 62
     7
100
AcDbSpline
210
0.0
220
0.0
230
1.0
 70
     8
 71
     3
 72
    11
 73
     7
 74
     5
 42
0.000000001
 43
0.0000000001
 44
0.00000001
 40
0.0
 40
0.0
 40
0.0
 40
0.0
 40
0.6381875170700464
 40
1.558926878649399
 40
2.693975839445728
 40
3.829024808860532
 40
3.829024808860532
 40
3.829024808860532
 40
3.829024808860532
 10
-505.2483435681612
 20
-540.7128817650128
 30
0.0
 10
-505.166542168168
 20
-540.5078321819896
 30
0.0
 10
-504.9667225120675
 20
-540.0069491471359
 30
0.0
 10
-504.0432273213227
 20
-539.6843630864676
 30
0.0
 10
-503.0008704072529
 20
-539.5234073565497
 30
0.0
 10
-502.2491858489706
 20
-539.6668712395003
 30
0.0
 10
-501.8733435681613
 20
-539.7386031857552
 30
0.0
 11
-505.2483435681612
 21
-540.7128817650128
 31
0.0
 11
-504.9468673782484
 21
-540.1503913918747
 31
0.0
 11
-504.1233435681613
 21
-539.7386031857552
 31
0.0
 11
-502.9983435681613
 21
-539.5879010187366
 31
0.0
 11
-501.8733435681613
 21
-539.7386031857552
 31
0.0
  0
SPLINE
  5
9B
330
47
100
AcDbEntity
  8
0
  6
Continuous
 62
     7
100
AcDbSpline
210
0.0
220
0.0
230
1.0
 70
     8
 71
     3
 72
    11
 73
     7
 74
     5
 42
0.000000001
 43
0.0000000001
 44
0.00000001
 40
0.0
 40
0.0
 40
0.0
 40
0.0
 40
0.5445017021899243
 40
1.213585333621251
 40
2.045457511299402
 40
3.012757574337873
 40
3.012757574337873
 40
3.012757574337873
 40
3.012757574337873
 10
-506.3483435681613
 20
-540.7128817650128
 30
0.0
 10
-506.3096622063126
 20
-540.5309892645205
 30
0.0
 10
-506.2234491770097
 20
-540.1255872846685
 30
0.0
 10
-505.6695874376056
 20
-539.6660698754404
 30
0.0
 10
-504.9312960519534
 20
-539.3052930807386
 30
0.0
 10
-504.3404319859306
 20
-539.1835649464343
 30
0.0
 10
-504.0227620941815
 20
-539.1181195034557
 30
0.0
 11
-506.3483435681613
 21
-540.7128817650128
 31
0.0
 11
-506.1835033180652
 21
-540.1939310927115
 31
0.0
 11
-505.7052146458234
 21
-539.7260498430378
 31
0.0
 11
-504.9605371345252
 21
-539.355284784899
 31
0.0
 11
-504.0227620941815
 21
-539.1181195034557
 31
0.0
  0
SPLINE
  5
9C
330
47
100
AcDbEntity
  8
0
  6
Continuous
 62
     7
100
AcDbSpline
210
0.0
220
0.0
230
1.0
 70
     8
 71
     3
 72
    13
 73
     9
 74
     7
 42
0.000000001
 43
0.0000000001
 44
0.00000001
 40
0.0
 40
0.0
 40
0.0
 40
0.0
 40
0.9501903101891073
 40
2.321068927236493
 40
4.011030716559254
 40
5.700992505881903
 40
7.071871122929238
 40
8.022061433118273
 40
8.022061433118273
 40
8.022061433118273
 40
8.022061433118273
 10
-499.6483435681612
 20
-547.6410849952882
 30
0.0
 10
-499.7701713734114
 20
-547.9462065424951
 30
0.0
 10
-500.067765177493
 20
-548.6915394755432
 30
0.0
 10
-501.4418224010764
 20
-549.1764957700958
 30
0.0
 10
-502.9983435681612
 20
-549.3931110023234
 30
0.0
 10
-504.5548647352462
 20
-549.1764957700959
 30
0.0
 10
-505.9289219588292
 20
-548.6915394755431
 30
0.0
 10
-506.226515762911
 20
-547.9462065424952
 30
0.0
 10
-506.3483435681612
 20
-547.6410849952883
 30
0.0
 11
-499.6483435681612
 21
-547.6410849952882
 31
0.0
 11
-500.0972081175871
 21
-548.4785706619605
 31
0.0
 11
-501.3233435681612
 21
-549.0916775466271
 31
0.0
 11
-502.9983435681613
 21
-549.3160563286327
 31
0.0
 11
-504.6733435681612
 21
-549.0916775466271
 31
0.0
 11
-505.8994790187353
 21
-548.4785706619605
 31
0.0
 11
-506.3483435681612
 21
-547.6410849952883
 31
0.0
  0
SPLINE
  5
9D
330
47
100
AcDbEntity
  8
0
  6
Continuous
 62
     7
100
AcDbSpline
210
0.0
220
0.0
230
1.0
 70
     8
 71
     3
 72
     9
 73
     5
 74
     3
 42
0.000000001
 43
0.0000000001
 44
0.00000001
 40
0.0
 40
0.0
 40
0.0
 40
0.0
 40
0.9207393696940422
 40
1.558926888448032
 40
1.558926888448032
 40
1.558926888448032
 40
1.558926888448032
 10
-501.8733435681613
 20
-539.7386031857552
 30
0.0
 10
-501.5605856798296
 20
-539.836516614332
 30
0.0
 10
-501.0310474772378
 20
-540.0022963073454
 30
0.0
 10
-500.8304594996195
 20
-540.5064806893681
 30
0.0
 10
-500.7483435681613
 20
-540.7128817650126
 30
0.0
 11
-501.8733435681613
 21
-539.7386031857552
 31
0.0
 11
-501.0498197580742
 21
-540.1503913918746
 31
0.0
 11
-500.7483435681613
 21
-540.7128817650126
 31
0.0
  0
SPLINE
  5
9E
330
47
100
AcDbEntity
  8
0
  6
Continuous
 62
     7
100
AcDbSpline
210
0.0
220
0.0
230
1.0
 70
     8
 71
     3
 72
    13
 73
     9
 74
     7
 42
0.000000001
 43
0.0000000001
 44
0.00000001
 40
0.0
 40
0.0
 40
0.0
 40
0.0
 40
0.9501903101891538
 40
2.321068927236591
 40
4.011030716559295
 40
5.700992505882001
 40
7.071871122929386
 40
8.022061433118493
 40
8.022061433118493
 40
8.022061433118493
 40
8.022061433118493
 10
-499.6483435681613
 20
-540.7128817650126
 30
0.0
 10
-499.7701713734116
 20
-541.0180033122198
 30
0.0
 10
-500.0677651774928
 20
-541.7633362452675
 30
0.0
 10
-501.4418224010765
 20
-542.2482925398203
 30
0.0
 10
-502.9983435681611
 20
-542.4649077720478
 30
0.0
 10
-504.554864735246
 20
-542.2482925398203
 30
0.0
 10
-505.9289219588293
 20
-541.7633362452676
 30
0.0
 10
-506.2265157629113
 20
-541.0180033122197
 30
0.0
 10
-506.3483435681613
 20
-540.7128817650128
 30
0.0
 11
-499.6483435681613
 21
-540.7128817650126
 31
0.0
 11
-500.0972081175871
 21
-541.550367431685
 31
0.0
 11
-501.3233435681612
 21
-542.1634743163517
 31
0.0
 11
-502.9983435681613
 21
-542.3878530983573
 31
0.0
 11
-504.6733435681613
 21
-542.1634743163517
 31
0.0
 11
-505.8994790187354
 21
-541.550367431685
 31
0.0
 11
-506.3483435681613
 21
-540.7128817650128
 31
0.0
  0
SPLINE
  5
9F
330
47
100
AcDbEntity
  8
0
  6
Continuous
 62
     7
100
AcDbSpline
210
0.0
220
0.0
230
1.0
 70
     8
 71
     3
 72
    13
 73
     9
 74
     7
 42
0.000000001
 43
0.0000000001
 44
0.00000001
 40
0.0
 40
0.0
 40
0.0
 40
0.0
 40
0.6381875217626288
 40
1.558926889923995
 40
2.693975854024632
 40
3.82902481812531
 40
4.749764186286727
 40
5.387951708049356
 40
5.387951708049356
 40
5.387951708049356
 40
5.387951708049356
 10
-500.7483435681613
 20
-540.7128817650126
 30
0.0
 10
-500.8301682134779
 20
-540.9178141474631
 30
0.0
 10
-501.0300446543122
 20
-541.418410889116
 30
0.0
 10
-501.9529189015244
 20
-541.7441278143062
 30
0.0
 10
-502.9983435681613
 20
-541.8896156518964
 30
0.0
 10
-504.0437682347981
 20
-541.7441278143065
 30
0.0
 10
-504.9666424820102
 20
-541.418410889116
 30
0.0
 10
-505.1665189228447
 20
-540.9178141474632
 30
0.0
 10
-505.2483435681612
 20
-540.7128817650128
 30
0.0
 11
-500.7483435681613
 21
-540.7128817650126
 31
0.0
 11
-501.0498197580741
 21
-541.2753721381507
 31
0.0
 11
-501.8733435681612
 21
-541.6871603442702
 31
0.0
 11
-502.9983435681612
 21
-541.8378625112889
 31
0.0
 11
-504.1233435681613
 21
-541.6871603442703
 31
0.0
 11
-504.9468673782484
 21
-541.2753721381508
 31
0.0
 11
-505.2483435681612
 21
-540.7128817650128
 31
0.0
  0
SPLINE
  5
A0
330
47
100
AcDbEntity
  8
0
  6
Continuous
 62
     7
100
AcDbSpline
210
0.0
220
0.0
230
1.0
 70
     8
 71
     3
 72
    13
 73
     9
 74
     7
 42
0.000000001
 43
0.0000000001
 44
0.00000001
 40
0.0
 40
0.0
 40
0.0
 40
0.0
 40
2.681307894632802
 40
5.703959199914721
 40
8.885995314819901
 40
11.94875126871986
 40
14.68477680592296
 40
17.11944871020005
 40
17.11944871020005
 40
17.11944871020005
 40
17.11944871020005
 10
-496.1273273054511
 20
-532.9372045504767
 30
0.0
 10
-495.9602766074208
 20
-532.0436443684283
 30
0.0
 10
-495.6049088678183
 20
-530.1427694874528
 30
0.0
 10
-496.7407865140091
 20
-527.2671606274685
 30
0.0
 10
-498.7176218353533
 20
-524.8391070342554
 30
0.0
 10
-501.315154093395
 20
-523.2774463858213
 30
0.0
 10
-504.1957428994817
 20
-522.7622229102461
 30
0.0
 10
-505.7323794022763
 20
-523.6410103268081
 30
0.0
 10
-506.4559192631173
 20
-524.0547957182126
 30
0.0
 11
-496.1273273054511
 21
-532.9372045504767
 31
0.0
 11
-495.865819530283
 21
-530.2686795433344
 31
0.0
 11
-496.8462849347842
 21
-527.4094648763046
 31
0.0
 11
-498.8661651127958
 21
-524.9507176522013
 31
0.0
 11
-501.5077381820043
 21
-523.400696433907
 31
0.0
 11
-504.2249052848936
 21
-523.080011674497
 31
0.0
 11
-506.4559192631173
 21
-524.0547957182126
 31
0.0
  0
ENDBLK
  5
49
330
47
100
AcDbEntity
  8
0
100
AcDbBlockEnd
  0
BLOCK
  5
4C
330
4A
100
AcDbEntity
  8
0
100
AcDbBlockBegin
  2
Allg1
 70
     0
 10
-502.9807999999999
 20
-535.5176
 30
0.0
  3
Allg1
  1

  0
INSERT
  5
4B
330
4A
100
AcDbEntity
  8
0
100
AcDbBlockReference
  2
C_RC_10_M8_DIN-select__1
 10
-508.0250572054353
 20
-549.390849255968
 30
0.0
  0
MTEXT
  5
A2
330
4A
100
AcDbEntity
  8
1
 62
     6
100
AcDbMText
 10
-503.588700721064
 20
-555.5839498198072
 30
0.0
 40
2.5
 41
0.0
 71
     2
 72
     1
  1
 
  7
CONVERTER_11
 73
     1
 44
1.32052821128451
  0
ENDBLK
  5
4D
330
4A
100
AcDbEntity
  8
0
100
AcDbBlockEnd
  0
BLOCK
  5
4F
330
4E
100
AcDbEntity
  8
0
100
AcDbBlockBegin
  2
C_RC_10_M8_DIN-select__2
 70
     0
 10
-558.1078288830029
 20
-544.6014633401045
 30
0.0
  3
C_RC_10_M8_DIN-select__2
  1

  0
LINE
  5
A3
330
4E
100
AcDbEntity
  8
0
  6
Continuous
 62
     7
100
AcDbLine
 10
-544.1078288830029
 20
-537.9014633401046
 30
0.0
 11
-558.1078288830029
 21
-537.9014633401046
 31
0.0
  0
LINE
  5
A4
330
4E
100
AcDbEntity
  8
0
  6
Continuous
 62
     7
100
AcDbLine
 10
-544.1078288830029
 20
-537.9014633401046
 30
0.0
 11
-544.1078288830029
 21
-539.0014633401044
 31
0.0
  0
LINE
  5
A5
330
4E
100
AcDbEntity
  8
0
  6
Continuous
 62
     7
100
AcDbLine
 10
-548.6258941538044
 20
-539.0014633401044
 30
0.0
 11
-551.1078288830025
 21
-539.0014633401046
 31
0.0
  0
LINE
  5
A6
330
4E
100
AcDbEntity
  8
0
  6
Continuous
 62
     7
100
AcDbLine
 10
-551.1078288830025
 20
-539.0014633401046
 30
0.0
 11
-553.5897636122005
 21
-539.0014633401044
 31
0.0
  0
LINE
  5
A7
330
4E
100
AcDbEntity
  8
0
  6
Continuous
 62
     7
100
AcDbLine
 10
-544.1078288830029
 20
-539.0014633401044
 30
0.0
 11
-548.6258941538044
 21
-539.0014633401044
 31
0.0
  0
LINE
  5
A8
330
4E
100
AcDbEntity
  8
0
  6
Continuous
 62
     7
100
AcDbLine
 10
-553.5897636122005
 20
-539.0014633401044
 30
0.0
 11
-558.1078288830029
 21
-539.0014633401044
 31
0.0
  0
LINE
  5
A9
330
4E
100
AcDbEntity
  8
0
  6
Continuous
 62
     7
100
AcDbLine
 10
-558.1078288830029
 20
-537.9014633401046
 30
0.0
 11
-558.1078288830029
 21
-539.0014633401044
 31
0.0
  0
LINE
  5
AA
330
4E
100
AcDbEntity
  8
1
  6
DOT_CENTER
 62
     2
100
AcDbLine
 10
-548.6328288830025
 20
-541.2514633401046
 30
0.0
 11
-553.5828288830025
 21
-541.2514633401046
 31
0.0
  0
LINE
  5
AB
330
4E
100
AcDbEntity
  8
1
  6
DOT_CENTER
 62
     2
100
AcDbLine
 10
-551.1078288830025
 20
-538.7764633401046
 30
0.0
 11
-551.1078288830025
 21
-543.7264633401046
 31
0.0
  0
LINE
  5
AC
330
4E
100
AcDbEntity
  8
1
  6
DOT_CENTER
 62
     2
100
AcDbLine
 10
-551.1078288830029
 20
-537.9014633401046
 30
0.0
 11
-551.1078288830025
 21
-539.0014633401046
 31
0.0
  0
ARC
  5
AD
330
4E
100
AcDbEntity
  8
0
  6
Continuous
 62
     7
100
AcDbCircle
 10
-551.1078288830025
 20
-541.2514633401046
 30
0.0
 40
3.350000000000006
100
AcDbArc
 50
137.8060941726041
 51
42.19390582739457
  0
CIRCLE
  5
AE
330
4E
100
AcDbEntity
  8
0
  6
Continuous
 62
     7
100
AcDbCircle
 10
-551.1078288830025
 20
-541.2514633401046
 30
0.0
 40
2.25
  0
ENDBLK
  5
50
330
4E
100
AcDbEntity
  8
0
100
AcDbBlockEnd
  0
BLOCK
  5
53
330
51
100
AcDbEntity
  8
0
100
AcDbBlockBegin
  2
Drfsicht1
 70
     0
 10
-551.0946249999996
 20
-541.239246
 30
0.0
  3
Drfsicht1
  1

  0
INSERT
  5
52
330
51
100
AcDbEntity
  8
0
100
AcDbBlockReference
  2
C_RC_10_M8_DIN-select__2
 10
-558.1078288830029
 20
-544.6014633401045
 30
0.0
  0
MTEXT
  5
AF
330
51
100
AcDbEntity
  8
1
 62
     6
100
AcDbMText
 10
-552.3281423134671
 20
-548.160435946133
 30
0.0
 40
2.5
 41
0.0
 71
     2
 72
     1
  1
 
  7
CONVERTER_11
 73
     1
 44
1.32052821128451
  0
DIMENSION
  5
BA
330
51
100
AcDbEntity
  8
1
100
AcDbDimension
  2
*D17
 10
-558.1078288830029
 20
-534.480910296755
 30
0.0
 11
-551.05923005332
 21
-532.605910296755
 31
0.0
 70
    33
  1
<>
 71
     5
 42
-1.0
 53
0.00013888888889
  3
ME10_DIM_10
100
AcDbAlignedDimension
 13
-544.1078288830029
 23
-537.9014633401046
 33
0.0
 14
-558.1078288830029
 24
-537.9014633401046
 34
0.0
  0
ENDBLK
  5
54
330
51
100
AcDbEntity
  8
0
100
AcDbBlockEnd
  0
BLOCK
  5
56
330
55
100
AcDbEntity
  8
0
100
AcDbBlockBegin
  2
C_RC_10_M8_DIN-select__3
 70
     0
 10
-496.4867961169969
 20
-511.9974976137428
 30
0.0
  3
C_RC_10_M8_DIN-select__3
  1

  0
LINE
  5
BB
330
55
100
AcDbEntity
  8
0
  6
Continuous
 62
     7
100
AcDbLine
 10
-489.4867961169973
 20
-511.9974976137427
 30
0.0
 11
-492.8367961169973
 21
-511.9974976137427
 31
0.0
  0
LINE
  5
BC
330
55
100
AcDbEntity
  8
0
  6
Continuous
 62
     7
100
AcDbLine
 10
-492.8367961169971
 20
-503.9974976137427
 30
0.0
 11
-492.8367961169973
 21
-511.9974976137427
 31
0.0
  0
LINE
  5
BD
330
55
100
AcDbEntity
  8
0
  6
Continuous
 62
     7
100
AcDbLine
 10
-486.1367961169971
 20
-503.9974976137428
 30
0.0
 11
-486.1367961169974
 21
-511.9974976137428
 31
0.0
  0
LINE
  5
BE
330
55
100
AcDbEntity
  8
0
  6
Continuous
 62
     7
100
AcDbLine
 10
-486.1367961169974
 20
-511.9974976137428
 30
0.0
 11
-489.4867961169973
 21
-511.9974976137427
 31
0.0
  0
LINE
  5
BF
330
55
100
AcDbEntity
  8
0
  6
Continuous
 62
     7
100
AcDbLine
 10
-482.8518680449094
 20
-494.2285801936184
 30
0.0
 11
-486.1367961169971
 21
-503.9974976137428
 31
0.0
  0
LINE
  5
C0
330
55
100
AcDbEntity
  8
0
  6
Continuous
 62
     7
100
AcDbLine
 10
-486.1367961169971
 20
-503.9974976137428
 30
0.0
 11
-492.8367961169971
 21
-503.9974976137427
 31
0.0
  0
LINE
  5
C1
330
55
100
AcDbEntity
  8
0
  6
Continuous
 62
     7
100
AcDbLine
 10
-492.8367961169971
 20
-503.9974976137427
 30
0.0
 11
-496.1217241890845
 21
-494.2285801936182
 31
0.0
  0
LINE
  5
C2
330
55
100
AcDbEntity
  8
1
  6
DOT_CENTER
 62
     2
100
AcDbLine
 10
-484.8667961169969
 20
-491.9974976137427
 30
0.0
 11
-494.1067961169969
 21
-491.9974976137427
 31
0.0
  0
LINE
  5
C3
330
55
100
AcDbEntity
  8
1
  6
DOT_CENTER
 62
     2
100
AcDbLine
 10
-489.4867961169969
 20
-487.3774976137427
 30
0.0
 11
-489.4867961169969
 21
-496.6174976137427
 31
0.0
  0
LINE
  5
C4
330
55
100
AcDbEntity
  8
1
  6
DOT_CENTER
 62
     2
100
AcDbLine
 10
-489.4867961169971
 20
-503.9974976137427
 30
0.0
 11
-489.4867961169973
 21
-511.9974976137427
 31
0.0
  0
ARC
  5
C5
330
55
100
AcDbEntity
  8
0
  6
Continuous
 62
     7
100
AcDbCircle
 10
-489.4867961169969
 20
-491.9974976137427
 30
0.0
 40
6.999999999999988
100
AcDbArc
 50
341.4140987381193
 51
198.5859012618787
  0
CIRCLE
  5
C6
330
55
100
AcDbEntity
  8
0
  6
Continuous
 62
     7
100
AcDbCircle
 10
-489.4867961169969
 20
-491.9974976137427
 30
0.0
 40
4.199999999999989
  0
ENDBLK
  5
57
330
55
100
AcDbEntity
  8
0
100
AcDbBlockEnd
  0
BLOCK
  5
5A
330
58
100
AcDbEntity
  8
0
100
AcDbBlockBegin
  2
Rckans1
 70
     0
 10
-489.5
 20
-498.0008
 30
0.0
  3
Rckans1
  1

  0
INSERT
  5
59
330
58
100
AcDbEntity
  8
0
100
AcDbBlockReference
  2
C_RC_10_M8_DIN-select__3
 10
-496.4867961169969
 20
-511.9974976137428
 30
0.0
  0
MTEXT
  5
C7
330
58
100
AcDbEntity
  8
1
 62
     6
100
AcDbMText
 10
-488.266482834438
 20
-517.3998307868745
 30
0.0
 40
2.5
 41
0.0
 71
     2
 72
     1
  1
 
  7
CONVERTER_11
 73
     1
 44
1.32052821128451
  0
ENDBLK
  5
5B
330
58
100
AcDbEntity
  8
0
100
AcDbBlockEnd
  0
BLOCK
  5
5D
330
5C
100
AcDbEntity
  8
0
100
AcDbBlockBegin
  2
C_RC_10_M8_DIN-select__4
 70
     0
 10
-522.6759796598956
 20
-511.9974976137428
 30
0.0
  3
C_RC_10_M8_DIN-select__4
  1

  0
LINE
  5
C8
330
5C
100
AcDbEntity
  8
0
  6
Continuous
 62
     7
100
AcDbLine
 10
-522.6759796598956
 20
-503.9974976137428
 30
0.0
 11
-522.6759796598955
 21
-511.9974976137428
 31
0.0
  0
LINE
  5
C9
330
5C
100
AcDbEntity
  8
0
  6
Continuous
 62
     7
100
AcDbLine
 10
-515.9759796598955
 20
-503.9974976137428
 30
0.0
 11
-521.5759796598957
 21
-503.9974976137428
 31
0.0
  0
LINE
  5
CA
330
5C
100
AcDbEntity
  8
0
  6
Continuous
 62
     7
100
AcDbLine
 10
-521.5759796598957
 20
-503.9974976137428
 30
0.0
 11
-522.6759796598956
 21
-503.9974976137428
 31
0.0
  0
LINE
  5
CB
330
5C
100
AcDbEntity
  8
0
  6
Continuous
 62
     7
100
AcDbLine
 10
-515.9759796598955
 20
-511.9974976137428
 30
0.0
 11
-522.6759796598955
 21
-511.9974976137428
 31
0.0
  0
LINE
  5
CC
330
5C
100
AcDbEntity
  8
0
  6
Continuous
 62
     7
100
AcDbLine
 10
-515.9759796598955
 20
-503.9974976137428
 30
0.0
 11
-515.9759796598955
 21
-511.9974976137428
 31
0.0
  0
LINE
  5
CD
330
5C
100
AcDbEntity
  8
0
  6
Continuous
 62
     7
100
AcDbLine
 10
-521.5759796598957
 20
-503.9974976137428
 30
0.0
 11
-521.5759796598957
 21
-494.2285801936184
 31
0.0
  0
LINE
  5
CE
330
5C
100
AcDbEntity
  8
0
  6
Continuous
 62
     7
100
AcDbLine
 10
-521.5759796598957
 20
-484.9974976137428
 30
0.0
 11
-521.5759796598957
 21
-494.2285801936184
 31
0.0
  0
LINE
  5
CF
330
5C
100
AcDbEntity
  8
0
  6
Continuous
 62
     2
100
AcDbLine
 10
-521.5759796598957
 20
-494.2285801936184
 30
0.0
 11
-522.6759796598956
 21
-494.2285801936184
 31
0.0
  0
LINE
  5
D0
330
5C
100
AcDbEntity
  8
0
  6
Continuous
 62
     7
100
AcDbLine
 10
-522.6759796598955
 20
-484.9974976137428
 30
0.0
 11
-522.6759796598956
 21
-494.2285801936184
 31
0.0
  0
LINE
  5
D1
330
5C
100
AcDbEntity
  8
0
  6
Continuous
 62
     7
100
AcDbLine
 10
-522.6759796598955
 20
-484.9974976137428
 30
0.0
 11
-521.5759796598957
 21
-484.9974976137428
 31
0.0
  0
LINE
  5
D2
330
5C
100
AcDbEntity
  8
0
  6
Continuous
 62
     7
100
AcDbLine
 10
-522.6759796598956
 20
-494.2285801936184
 30
0.0
 11
-522.6759796598956
 21
-503.9974976137428
 31
0.0
  0
LINE
  5
D3
330
5C
100
AcDbEntity
  8
1
  6
DOT_CENTER
 62
     2
100
AcDbLine
 10
-519.3259796598956
 20
-503.9974976137428
 30
0.0
 11
-519.3259796598956
 21
-511.9974976137428
 31
0.0
  0
ENDBLK
  5
5E
330
5C
100
AcDbEntity
  8
0
100
AcDbBlockEnd
  0
BLOCK
  5
61
330
5F
100
AcDbEntity
  8
0
100
AcDbBlockBegin
  2
SA_Links1
 70
     0
 10
-519.338197
 20
-498.0008
 30
0.0
  3
SA_Links1
  1

  0
INSERT
  5
60
330
5F
100
AcDbEntity
  8
0
100
AcDbBlockReference
  2
C_RC_10_M8_DIN-select__4
 10
-522.6759796598956
 20
-511.9974976137428
 30
0.0
  0
MTEXT
  5
D4
330
5F
100
AcDbEntity
  8
1
 62
     6
100
AcDbMText
 10
-520.2973110546385
 20
-517.3998307868745
 30
0.0
 40
2.5
 41
0.0
 71
     2
 72
     1
  1
 
  7
CONVERTER_11
 73
     1
 44
1.32052821128451
  0
ENDBLK
  5
62
330
5F
100
AcDbEntity
  8
0
100
AcDbBlockEnd
  0
BLOCK
  5
64
330
63
100
AcDbEntity
  8
0
100
AcDbBlockBegin
  2
C_RC_10_M8_DIN-select__5
 70
     0
 10
-588.6803023401045
 20
-511.9974976137428
 30
0.0
  3
C_RC_10_M8_DIN-select__5
  1

  0
LINE
  5
D5
330
63
100
AcDbEntity
  8
0
  6
Continuous
 62
     7
100
AcDbLine
 10
-581.9803023401045
 20
-494.2285801936183
 30
0.0
 11
-581.9803023401045
 21
-484.9974976137428
 31
0.0
  0
LINE
  5
D6
330
63
100
AcDbEntity
  8
0
  6
Continuous
 62
     7
100
AcDbLine
 10
-583.0803023401044
 20
-494.2285801936183
 30
0.0
 11
-583.0803023401044
 21
-484.9974976137428
 31
0.0
  0
LINE
  5
D7
330
63
100
AcDbEntity
  8
0
  6
Continuous
 62
     7
100
AcDbLine
 10
-581.9803023401045
 20
-484.9974976137428
 30
0.0
 11
-583.0803023401044
 21
-484.9974976137428
 31
0.0
  0
LINE
  5
D8
330
63
100
AcDbEntity
  8
0
  6
Continuous
 62
     7
100
AcDbLine
 10
-581.9803023401045
 20
-503.9974976137428
 30
0.0
 11
-581.9803023401045
 21
-511.9974976137428
 31
0.0
  0
LINE
  5
D9
330
63
100
AcDbEntity
  8
0
  6
Continuous
 62
     7
100
AcDbLine
 10
-581.9803023401045
 20
-511.9974976137428
 30
0.0
 11
-588.6803023401045
 21
-511.9974976137428
 31
0.0
  0
LINE
  5
DA
330
63
100
AcDbEntity
  8
0
  6
Continuous
 62
     7
100
AcDbLine
 10
-588.6803023401045
 20
-503.9974976137428
 30
0.0
 11
-588.6803023401045
 21
-511.9974976137428
 31
0.0
  0
LINE
  5
DB
330
63
100
AcDbEntity
  8
0
  6
Continuous
 62
     7
100
AcDbLine
 10
-583.0803023401044
 20
-503.9974976137428
 30
0.0
 11
-588.6803023401045
 21
-503.9974976137428
 31
0.0
  0
LINE
  5
DC
330
63
100
AcDbEntity
  8
0
  6
Continuous
 62
     7
100
AcDbLine
 10
-583.0803023401044
 20
-503.9974976137428
 30
0.0
 11
-581.9803023401045
 21
-503.9974976137428
 31
0.0
  0
LINE
  5
DD
330
63
100
AcDbEntity
  8
0
  6
Continuous
 62
     7
100
AcDbLine
 10
-583.0803023401044
 20
-494.2285801936183
 30
0.0
 11
-583.0803023401044
 21
-503.9974976137428
 31
0.0
  0
LINE
  5
DE
330
63
100
AcDbEntity
  8
0
  6
Continuous
 62
     2
100
AcDbLine
 10
-583.0803023401044
 20
-494.2285801936183
 30
0.0
 11
-581.9803023401045
 21
-494.2285801936183
 31
0.0
  0
LINE
  5
DF
330
63
100
AcDbEntity
  8
0
  6
Continuous
 62
     7
100
AcDbLine
 10
-581.9803023401045
 20
-503.9974976137428
 30
0.0
 11
-581.9803023401045
 21
-494.2285801936183
 31
0.0
  0
LINE
  5
E0
330
63
100
AcDbEntity
  8
1
  6
DOT_CENTER
 62
     2
100
AcDbLine
 10
-585.3303023401045
 20
-503.9974976137428
 30
0.0
 11
-585.3303023401045
 21
-511.9974976137428
 31
0.0
  0
ENDBLK
  5
65
330
63
100
AcDbEntity
  8
0
100
AcDbBlockEnd
  0
BLOCK
  5
68
330
66
100
AcDbEntity
  8
0
100
AcDbBlockBegin
  2
SA_Rechts1
 70
     0
 10
-585.318085
 20
-498.0008000000001
 30
0.0
  3
SA_Rechts1
  1

  0
INSERT
  5
67
330
66
100
AcDbEntity
  8
0
100
AcDbBlockReference
  2
C_RC_10_M8_DIN-select__5
 10
-588.6803023401045
 20
-511.9974976137428
 30
0.0
  0
MTEXT
  5
E1
330
66
100
AcDbEntity
  8
1
 62
     6
100
AcDbMText
 10
-584.3589715336672
 20
-517.3998307868745
 30
0.0
 40
2.5
 41
0.0
 71
     2
 72
     1
  1
 
  7
CONVERTER_11
 73
     1
 44
1.32052821128451
  0
DIMENSION
  5
EC
330
66
100
AcDbEntity
  8
1
100
AcDbDimension
  2
*D18
 10
-593.76429691273
 20
-503.9974976137428
 30
0.0
 11
-595.63929691273
 21
-507.9460391029
 31
0.0
 70
    32
  1
<>
 71
     5
 42
-1.0
 53
90.0
  3
ME10_DIM_11
100
AcDbAlignedDimension
 13
-588.6803023401045
 23
-511.9974976137428
 33
0.0
 14
-588.6803023401045
 24
-503.9974976137428
 34
0.0
 50
90.0
100
AcDbRotatedDimension
  0
ENDBLK
  5
69
330
66
100
AcDbEntity
  8
0
100
AcDbBlockEnd
  0
BLOCK
  5
6B
330
6A
100
AcDbEntity
  8
0
100
AcDbBlockBegin
  2
C_RC_10_M8_DIN-select__6
 70
     0
 10
-558.107827883003
 20
-511.9974976137429
 30
0.0
  3
C_RC_10_M8_DIN-select__6
  1

  0
LINE
  5
ED
330
6A
100
AcDbEntity
  8
0
  6
Continuous
 62
     7
100
AcDbLine
 10
-547.7578278830028
 20
-503.9974976137428
 30
0.0
 11
-554.4578278830028
 21
-503.9974976137429
 31
0.0
  0
LINE
  5
EE
330
6A
100
AcDbEntity
  8
0
  6
Continuous
 62
     7
100
AcDbLine
 10
-547.7578278830026
 20
-511.9974976137428
 30
0.0
 11
-554.4578278830026
 21
-511.9974976137429
 31
0.0
  0
LINE
  5
EF
330
6A
100
AcDbEntity
  8
0
  6
Continuous
 62
     7
100
AcDbLine
 10
-554.4578278830028
 20
-503.9974976137429
 30
0.0
 11
-554.4578278830026
 21
-511.9974976137429
 31
0.0
  0
LINE
  5
F0
330
6A
100
AcDbEntity
  8
0
  6
Continuous
 62
     7
100
AcDbLine
 10
-544.4728998109155
 20
-494.2285801936183
 30
0.0
 11
-547.7578278830028
 21
-503.9974976137428
 31
0.0
  0
LINE
  5
F1
330
6A
100
AcDbEntity
  8
0
  6
Continuous
 62
     7
100
AcDbLine
 10
-547.7578278830028
 20
-503.9974976137428
 30
0.0
 11
-547.7578278830026
 21
-511.9974976137428
 31
0.0
  0
LINE
  5
F2
330
6A
100
AcDbEntity
  8
0
  6
Continuous
 62
     7
100
AcDbLine
 10
-554.4578278830028
 20
-503.9974976137429
 30
0.0
 11
-557.7427559550906
 21
-494.2285801936185
 31
0.0
  0
LINE
  5
F3
330
6A
100
AcDbEntity
  8
1
  6
DOT_CENTER
 62
     2
100
AcDbLine
 10
-546.4878278830031
 20
-491.9974976137428
 30
0.0
 11
-555.7278278830029
 21
-491.9974976137428
 31
0.0
  0
LINE
  5
F4
330
6A
100
AcDbEntity
  8
1
  6
DOT_CENTER
 62
     2
100
AcDbLine
 10
-551.107827883003
 20
-487.3774976137429
 30
0.0
 11
-551.107827883003
 21
-496.6174976137428
 31
0.0
  0
LINE
  5
F5
330
6A
100
AcDbEntity
  8
1
  6
DOT_CENTER
 62
     2
100
AcDbLine
 10
-551.1078278830028
 20
-503.9974976137428
 30
0.0
 11
-551.1078278830028
 21
-511.9974976137429
 31
0.0
  0
ARC
  5
F6
330
6A
100
AcDbEntity
  8
0
  6
Continuous
 62
     7
100
AcDbCircle
 10
-551.107827883003
 20
-491.9974976137428
 30
0.0
 40
6.999999999999933
100
AcDbArc
 50
341.4140987381207
 51
198.5859012618803
  0
CIRCLE
  5
F7
330
6A
100
AcDbEntity
  8
0
  6
Continuous
 62
     7
100
AcDbCircle
 10
-551.107827883003
 20
-491.9974976137428
 30
0.0
 40
4.199999999999932
  0
ENDBLK
  5
6C
330
6A
100
AcDbEntity
  8
0
100
AcDbBlockEnd
  0
BLOCK
  5
6F
330
6D
100
AcDbEntity
  8
0
100
AcDbBlockBegin
  2
Vordans1
 70
     0
 10
-551.0946239999998
 20
-498.0008000000001
 30
0.0
  3
Vordans1
  1

  0
INSERT
  5
6E
330
6D
100
AcDbEntity
  8
0
100
AcDbBlockReference
  2
C_RC_10_M8_DIN-select__6
 10
-558.107827883003
 20
-511.9974976137429
 30
0.0
  0
LINE
  5
F8
330
6D
100
AcDbEntity
  8
1
  6
Continuous
 62
     2
100
AcDbLine
 10
-551.107827883003
 20
-484.9974976137428
 30
0.0
 11
-553.107827883003
 21
-484.9974976137428
 31
0.0
  0
MTEXT
  5
F9
330
6D
100
AcDbEntity
  8
1
 62
     6
100
AcDbMText
 10
-552.3281413730663
 20
-517.3998307868745
 30
0.0
 40
2.5
 41
0.0
 71
     2
 72
     1
  1
 
  7
CONVERTER_11
 73
     1
 44
1.32052821128451
  0
DIMENSION
  5
104
330
6D
100
AcDbEntity
  8
1
100
AcDbDimension
  2
*D19
 10
-564.40510871332
 20
-484.9974976137428
 30
0.0
 11
-566.28010871332
 21
-497.9998982922175
 31
0.0
 70
    32
  1
<>
 71
     5
 42
-1.0
 53
90.0
  3
ME10_DIM_12
100
AcDbAlignedDimension
 13
-554.4578278830026
 23
-511.9974976137429
 33
0.0
 14
-551.107827883003
 24
-484.9974976137428
 34
0.0
 50
90.0
100
AcDbRotatedDimension
  0
DIMENSION
  5
10F
330
6D
100
AcDbEntity
  8
1
100
AcDbDimension
  2
*D20
 10
-554.4578278830026
 20
-519.3623307868745
 30
0.0
 11
-551.647337561605
 21
-517.3998307868745
 31
0.0
 70
    32
  1
<>
 71
     5
 42
-1.0
 53
0.00013888888889
  3
ME10_DIM_13
100
AcDbAlignedDimension
 13
-547.7578278830026
 23
-511.9974976137428
 33
0.0
 14
-554.4578278830026
 24
-511.9974976137429
 34
0.0
100
AcDbRotatedDimension
  0
ENDBLK
  5
70
330
6D
100
AcDbEntity
  8
0
100
AcDbBlockEnd
  0
BLOCK
  5
72
330
71
100
AcDbEntity
  8
0
100
AcDbBlockBegin
  2
_rahmen
 70
     0
 10
-928.8552309346645
 20
-1135.796450018759
 30
0.0
  3
_rahmen
  1

  0
LINE
  5
110
330
71
100
AcDbEntity
  8
1
  6
Continuous
 62
     6
100
AcDbLine
 10
-1058.400035461415
 20
-1105.296450018759
 30
0.0
 11
-928.8552309346628
 21
-1105.296450018759
 31
0.0
  0
LINE
  5
111
330
71
100
AcDbEntity
  8
1
  6
Continuous
 62
     7
100
AcDbLine
 10
-1040.200035461415
 20
-1126.546450018759
 30
0.0
 11
-1022.000035461415
 21
-1126.546450018759
 31
0.0
  0
LINE
  5
112
330
71
100
AcDbEntity
  8
1
  6
Continuous
 62
     6
100
AcDbLine
 10
-1040.200035461415
 20
-1130.796450018759
 30
0.0
 11
-1058.400035461415
 21
-1130.796450018759
 31
0.0
  0
LINE
  5
113
330
71
100
AcDbEntity
  8
1
  6
Continuous
 62
     7
100
AcDbLine
 10
-1040.200035461415
 20
-1126.546450018759
 30
0.0
 11
-1040.200035461415
 21
-1130.796450018759
 31
0.0
  0
LINE
  5
114
330
71
100
AcDbEntity
  8
1
  6
Continuous
 62
     7
100
AcDbLine
 10
-1022.000035461415
 20
-1126.546450018759
 30
0.0
 11
-1022.000035461415
 21
-1130.796450018759
 31
0.0
  0
LINE
  5
115
330
71
100
AcDbEntity
  8
1
  6
Continuous
 62
     7
100
AcDbLine
 10
-1058.400035461415
 20
-1126.546450018759
 30
0.0
 11
-1058.400035461415
 21
-1130.796450018759
 31
0.0
  0
LINE
  5
116
330
71
100
AcDbEntity
  8
1
  6
Continuous
 62
     7
100
AcDbLine
 10
-1058.400035461415
 20
-1126.546450018759
 30
0.0
 11
-1040.200035461415
 21
-1126.546450018759
 31
0.0
  0
LINE
  5
117
330
71
100
AcDbEntity
  8
1
  6
Continuous
 62
     2
100
AcDbLine
 10
-1049.163380574852
 20
-1107.171450018759
 30
0.0
 11
-1049.163380574852
 21
-1112.171450018759
 31
0.0
  0
LINE
  5
118
330
71
100
AcDbEntity
  8
1
  6
Continuous
 62
     2
100
AcDbLine
 10
-1049.163380574852
 20
-1112.171450018759
 30
0.0
 11
-1054.163380574852
 21
-1110.921450018759
 31
0.0
  0
LINE
  5
119
330
71
100
AcDbEntity
  8
1
  6
Continuous
 62
     2
100
AcDbLine
 10
-1054.163380574852
 20
-1110.921450018759
 30
0.0
 11
-1054.163380574852
 21
-1108.421450018759
 31
0.0
  0
LINE
  5
11A
330
71
100
AcDbEntity
  8
1
  6
Continuous
 62
     2
100
AcDbLine
 10
-1054.163380574852
 20
-1108.421450018759
 30
0.0
 11
-1049.163380574852
 21
-1107.171450018759
 31
0.0
  0
LINE
  5
11B
330
71
100
AcDbEntity
  8
1
  6
Continuous
 62
     6
100
AcDbLine
 10
-1180.855230934663
 20
-1130.796450018759
 30
0.0
 11
-1215.855230934663
 21
-1130.796450018759
 31
0.0
  0
LINE
  5
11C
330
71
100
AcDbEntity
  8
1
  6
Continuous
 62
     6
100
AcDbLine
 10
-928.8552309346628
 20
-1113.796450018759
 30
0.0
 11
-928.8552309346633
 21
-1122.296450018759
 31
0.0
  0
LINE
  5
11D
330
71
100
AcDbEntity
  8
1
  6
Continuous
 62
     6
100
AcDbLine
 10
-1022.000035461415
 20
-1130.796450018759
 30
0.0
 11
-1022.355230934665
 21
-1130.796450018759
 31
0.0
  0
LINE
  5
11E
330
71
100
AcDbEntity
  8
1
  6
Continuous
 62
     6
100
AcDbLine
 10
-1174.655230934665
 20
-1130.796450018759
 30
0.0
 11
-1180.855230934663
 21
-1130.796450018759
 31
0.0
  0
LINE
  5
11F
330
71
100
AcDbEntity
  8
1
  6
Continuous
 62
     7
100
AcDbLine
 10
-1022.000035461415
 20
-1113.796450018759
 30
0.0
 11
-1022.000035461415
 21
-1126.546450018759
 31
0.0
  0
LINE
  5
120
330
71
100
AcDbEntity
  8
1
  6
Continuous
 62
     7
100
AcDbLine
 10
-1058.400035461415
 20
-1113.796450018759
 30
0.0
 11
-1058.400035461415
 21
-1126.546450018759
 31
0.0
  0
LINE
  5
121
330
71
100
AcDbEntity
  8
1
  6
Continuous
 62
     6
100
AcDbLine
 10
-1072.355230934665
 20
-1130.796450018759
 30
0.0
 11
-1122.355230934665
 21
-1130.796450018759
 31
0.0
  0
LINE
  5
122
330
71
100
AcDbEntity
  8
1
  6
Continuous
 62
     6
100
AcDbLine
 10
-1174.655230934665
 20
-1130.796450018759
 30
0.0
 11
-1172.355230934665
 21
-1130.796450018759
 31
0.0
  0
LINE
  5
123
330
71
100
AcDbEntity
  8
1
  6
Continuous
 62
     6
100
AcDbLine
 10
-1022.000035461415
 20
-1130.796450018759
 30
0.0
 11
-972.3552309346645
 21
-1130.796450018759
 31
0.0
  0
LINE
  5
124
330
71
100
AcDbEntity
  8
1
  6
Continuous
 62
     6
100
AcDbLine
 10
-928.8552309346645
 20
-1130.796450018759
 30
0.0
 11
-928.8552309346633
 21
-1122.296450018759
 31
0.0
  0
LINE
  5
125
330
71
100
AcDbEntity
  8
1
  6
Continuous
 62
     2
100
AcDbLine
 10
-1220.855230934664
 20
-1130.796450018759
 30
0.0
 11
-1220.855230934664
 21
-1135.796450018759
 31
0.0
  0
LINE
  5
126
330
71
100
AcDbEntity
  8
1
  6
Continuous
 62
     2
100
AcDbLine
 10
-1215.855230934663
 20
-1130.796450018759
 30
0.0
 11
-1220.855230934664
 21
-1130.796450018759
 31
0.0
  0
LINE
  5
127
330
71
100
AcDbEntity
  8
1
  6
Continuous
 62
     2
100
AcDbLine
 10
-1215.855230934663
 20
-1135.796450018759
 30
0.0
 11
-1172.355230934665
 21
-1135.796450018759
 31
0.0
  0
LINE
  5
128
330
71
100
AcDbEntity
  8
1
  6
Continuous
 62
     2
100
AcDbLine
 10
-1215.855230934663
 20
-1130.796450018759
 30
0.0
 11
-1215.855230934663
 21
-1135.796450018759
 31
0.0
  0
LINE
  5
129
330
71
100
AcDbEntity
  8
1
  6
Continuous
 62
     2
100
AcDbLine
 10
-972.3552309346645
 20
-1135.796450018759
 30
0.0
 11
-1022.355230934665
 21
-1135.796450018759
 31
0.0
  0
LINE
  5
12A
330
71
100
AcDbEntity
  8
1
  6
Continuous
 62
     2
100
AcDbLine
 10
-972.3552309346645
 20
-1135.796450018759
 30
0.0
 11
-972.3552309346645
 21
-1130.796450018759
 31
0.0
  0
LINE
  5
12B
330
71
100
AcDbEntity
  8
1
  6
Continuous
 62
     2
100
AcDbLine
 10
-1022.355230934665
 20
-1135.796450018759
 30
0.0
 11
-1022.355230934665
 21
-1130.796450018759
 31
0.0
  0
LINE
  5
12C
330
71
100
AcDbEntity
  8
1
  6
Continuous
 62
     2
100
AcDbLine
 10
-1072.355230934665
 20
-1135.796450018759
 30
0.0
 11
-1022.355230934665
 21
-1135.796450018759
 31
0.0
  0
LINE
  5
12D
330
71
100
AcDbEntity
  8
1
  6
Continuous
 62
     2
100
AcDbLine
 10
-1072.355230934665
 20
-1135.796450018759
 30
0.0
 11
-1072.355230934665
 21
-1130.796450018759
 31
0.0
  0
LINE
  5
12E
330
71
100
AcDbEntity
  8
1
  6
Continuous
 62
     2
100
AcDbLine
 10
-1122.355230934665
 20
-1135.796450018759
 30
0.0
 11
-1072.355230934665
 21
-1135.796450018759
 31
0.0
  0
LINE
  5
12F
330
71
100
AcDbEntity
  8
1
  6
Continuous
 62
     2
100
AcDbLine
 10
-1122.355230934665
 20
-1135.796450018759
 30
0.0
 11
-1122.355230934665
 21
-1130.796450018759
 31
0.0
  0
LINE
  5
130
330
71
100
AcDbEntity
  8
1
  6
Continuous
 62
     2
100
AcDbLine
 10
-1172.355230934665
 20
-1135.796450018759
 30
0.0
 11
-1122.355230934665
 21
-1135.796450018759
 31
0.0
  0
LINE
  5
131
330
71
100
AcDbEntity
  8
1
  6
Continuous
 62
     2
100
AcDbLine
 10
-1172.355230934665
 20
-1135.796450018759
 30
0.0
 11
-1172.355230934665
 21
-1130.796450018759
 31
0.0
  0
LINE
  5
132
330
71
100
AcDbEntity
  8
1
  6
Continuous
 62
     6
100
AcDbLine
 10
-1215.855230934663
 20
-1080.796450018759
 30
0.0
 11
-1215.855230934663
 21
-1130.796450018759
 31
0.0
  0
LINE
  5
133
330
71
100
AcDbEntity
  8
1
  6
Continuous
 62
     2
100
AcDbLine
 10
-1220.855230934664
 20
-1080.796450018759
 30
0.0
 11
-1220.855230934664
 21
-1130.796450018759
 31
0.0
  0
LINE
  5
134
330
71
100
AcDbEntity
  8
1
  6
Continuous
 62
     2
100
AcDbLine
 10
-1220.855230934664
 20
-1080.796450018759
 30
0.0
 11
-1215.855230934663
 21
-1080.796450018759
 31
0.0
  0
LINE
  5
135
330
71
100
AcDbEntity
  8
1
  6
Continuous
 62
     6
100
AcDbLine
 10
-1215.855230934663
 20
-1030.796450018759
 30
0.0
 11
-1215.855230934663
 21
-1080.796450018759
 31
0.0
  0
LINE
  5
136
330
71
100
AcDbEntity
  8
1
  6
Continuous
 62
     2
100
AcDbLine
 10
-1220.855230934664
 20
-1030.796450018759
 30
0.0
 11
-1220.855230934664
 21
-1080.796450018759
 31
0.0
  0
LINE
  5
137
330
71
100
AcDbEntity
  8
1
  6
Continuous
 62
     2
100
AcDbLine
 10
-1220.855230934664
 20
-1030.796450018759
 30
0.0
 11
-1215.855230934663
 21
-1030.796450018759
 31
0.0
  0
LINE
  5
138
330
71
100
AcDbEntity
  8
1
  6
Continuous
 62
     6
100
AcDbLine
 10
-1215.855230934664
 20
-980.7964500187586
 30
0.0
 11
-1215.855230934663
 21
-1030.796450018759
 31
0.0
  0
LINE
  5
139
330
71
100
AcDbEntity
  8
1
  6
Continuous
 62
     2
100
AcDbLine
 10
-1220.855230934664
 20
-980.7964500187586
 30
0.0
 11
-1220.855230934664
 21
-1030.796450018759
 31
0.0
  0
LINE
  5
13A
330
71
100
AcDbEntity
  8
1
  6
Continuous
 62
     2
100
AcDbLine
 10
-1220.855230934664
 20
-980.7964500187586
 30
0.0
 11
-1215.855230934664
 21
-980.7964500187586
 31
0.0
  0
LINE
  5
13B
330
71
100
AcDbEntity
  8
1
  6
Continuous
 62
     6
100
AcDbLine
 10
-1215.855230934664
 20
-945.7964500187586
 30
0.0
 11
-1215.855230934664
 21
-980.7964500187586
 31
0.0
  0
LINE
  5
13C
330
71
100
AcDbEntity
  8
1
  6
Continuous
 62
     2
100
AcDbLine
 10
-1220.855230934664
 20
-925.7964500187586
 30
0.0
 11
-1220.855230934664
 21
-980.7964500187586
 31
0.0
  0
LINE
  5
13D
330
71
100
AcDbEntity
  8
1
  6
Continuous
 62
     2
100
AcDbLine
 10
-1220.855230934664
 20
-1135.796450018759
 30
0.0
 11
-1215.855230934663
 21
-1135.796450018759
 31
0.0
  0
LINE
  5
13E
330
71
100
AcDbEntity
  8
1
  6
Continuous
 62
     2
100
AcDbLine
 10
-1072.355230934665
 20
-925.7964500187586
 30
0.0
 11
-1072.355230934665
 21
-935.0051418634599
 31
0.0
  0
LINE
  5
13F
330
71
100
AcDbEntity
  8
1
  6
Continuous
 62
     2
100
AcDbLine
 10
-1072.355230934665
 20
-925.7964500187586
 30
0.0
 11
-1220.855230934664
 21
-925.7964500187586
 31
0.0
  0
LINE
  5
140
330
71
100
AcDbEntity
  8
1
  6
Continuous
 62
     2
100
AcDbLine
 10
-923.8552309346655
 20
-1130.796450018759
 30
0.0
 11
-923.8552309346655
 21
-1080.796450018759
 31
0.0
  0
LINE
  5
141
330
71
100
AcDbEntity
  8
1
  6
Continuous
 62
     2
100
AcDbLine
 10
-923.8552309346655
 20
-980.7964500187586
 30
0.0
 11
-923.8552309346655
 21
-925.7964500187586
 31
0.0
  0
LINE
  5
142
330
71
100
AcDbEntity
  8
1
  6
Continuous
 62
     6
100
AcDbLine
 10
-928.8552309346653
 20
-980.7964500187586
 30
0.0
 11
-928.8552309346655
 21
-945.7964500187586
 31
0.0
  0
LINE
  5
143
330
71
100
AcDbEntity
  8
1
  6
Continuous
 62
     2
100
AcDbLine
 10
-928.8552309346653
 20
-980.7964500187586
 30
0.0
 11
-923.8552309346655
 21
-980.7964500187586
 31
0.0
  0
LINE
  5
144
330
71
100
AcDbEntity
  8
1
  6
Continuous
 62
     2
100
AcDbLine
 10
-923.8552309346655
 20
-1030.796450018759
 30
0.0
 11
-923.8552309346655
 21
-980.7964500187586
 31
0.0
  0
LINE
  5
145
330
71
100
AcDbEntity
  8
1
  6
Continuous
 62
     6
100
AcDbLine
 10
-928.8552309346642
 20
-1030.796450018759
 30
0.0
 11
-928.8552309346653
 21
-980.7964500187586
 31
0.0
  0
LINE
  5
146
330
71
100
AcDbEntity
  8
1
  6
Continuous
 62
     2
100
AcDbLine
 10
-928.8552309346642
 20
-1030.796450018759
 30
0.0
 11
-923.8552309346655
 21
-1030.796450018759
 31
0.0
  0
LINE
  5
147
330
71
100
AcDbEntity
  8
1
  6
Continuous
 62
     2
100
AcDbLine
 10
-923.8552309346655
 20
-1080.796450018759
 30
0.0
 11
-923.8552309346655
 21
-1030.796450018759
 31
0.0
  0
LINE
  5
148
330
71
100
AcDbEntity
  8
1
  6
Continuous
 62
     6
100
AcDbLine
 10
-928.8552309346636
 20
-1080.796450018759
 30
0.0
 11
-928.8552309346642
 21
-1030.796450018759
 31
0.0
  0
LINE
  5
149
330
71
100
AcDbEntity
  8
1
  6
Continuous
 62
     2
100
AcDbLine
 10
-928.8552309346636
 20
-1080.796450018759
 30
0.0
 11
-923.8552309346655
 21
-1080.796450018759
 31
0.0
  0
LINE
  5
14A
330
71
100
AcDbEntity
  8
1
  6
Continuous
 62
     6
100
AcDbLine
 10
-928.8552309346655
 20
-945.7964500187586
 30
0.0
 11
-1215.855230934664
 21
-945.7964500187586
 31
0.0
  0
LINE
  5
14B
330
71
100
AcDbEntity
  8
1
  6
Continuous
 62
     2
100
AcDbLine
 10
-923.8552309346655
 20
-925.7964500187586
 30
0.0
 11
-1072.355230934665
 21
-925.7964500187586
 31
0.0
  0
LINE
  5
14C
330
71
100
AcDbEntity
  8
1
  6
Continuous
 62
     6
100
AcDbLine
 10
-928.8552309346628
 20
-1113.796450018759
 30
0.0
 11
-928.8552309346636
 21
-1080.796450018759
 31
0.0
  0
LINE
  5
14D
330
71
100
AcDbEntity
  8
1
  6
Continuous
 62
     2
100
AcDbLine
 10
-928.8552309346645
 20
-1135.796450018759
 30
0.0
 11
-972.3552309346645
 21
-1135.796450018759
 31
0.0
  0
LINE
  5
14E
330
71
100
AcDbEntity
  8
1
  6
Continuous
 62
     2
100
AcDbLine
 10
-923.8552309346655
 20
-1135.796450018759
 30
0.0
 11
-928.8552309346645
 21
-1135.796450018759
 31
0.0
  0
LINE
  5
14F
330
71
100
AcDbEntity
  8
1
  6
Continuous
 62
     2
100
AcDbLine
 10
-923.8552309346655
 20
-1135.796450018759
 30
0.0
 11
-923.8552309346655
 21
-1130.796450018759
 31
0.0
  0
LINE
  5
150
330
71
100
AcDbEntity
  8
1
  6
Continuous
 62
     6
100
AcDbLine
 10
-1058.400035461415
 20
-1113.796450018759
 30
0.0
 11
-1022.000035461415
 21
-1113.796450018759
 31
0.0
  0
LINE
  5
151
330
71
100
AcDbEntity
  8
1
  6
Continuous
 62
     2
100
AcDbLine
 10
-928.8552309346645
 20
-1130.796450018759
 30
0.0
 11
-928.8552309346645
 21
-1135.796450018759
 31
0.0
  0
LINE
  5
152
330
71
100
AcDbEntity
  8
1
  6
Continuous
 62
     2
100
AcDbLine
 10
-928.8552309346645
 20
-1130.796450018759
 30
0.0
 11
-923.8552309346655
 21
-1130.796450018759
 31
0.0
  0
LINE
  5
153
330
71
100
AcDbEntity
  8
1
  6
Continuous
 62
     6
100
AcDbLine
 10
-1022.355230934665
 20
-1130.796450018759
 30
0.0
 11
-1040.200035461415
 21
-1130.796450018759
 31
0.0
  0
LINE
  5
154
330
71
100
AcDbEntity
  8
1
  6
Continuous
 62
     6
100
AcDbLine
 10
-972.3552309346645
 20
-1130.796450018759
 30
0.0
 11
-928.8552309346645
 21
-1130.796450018759
 31
0.0
  0
LINE
  5
155
330
71
100
AcDbEntity
  8
1
  6
Continuous
 62
     6
100
AcDbLine
 10
-1122.355230934665
 20
-1130.796450018759
 30
0.0
 11
-1127.400035461415
 21
-1130.796450018759
 31
0.0
  0
LINE
  5
156
330
71
100
AcDbEntity
  8
1
  6
Continuous
 62
     6
100
AcDbLine
 10
-1072.355230934665
 20
-1130.796450018759
 30
0.0
 11
-1058.400035461415
 21
-1130.796450018759
 31
0.0
  0
LINE
  5
157
102
{ACAD_REACTORS
330
241
330
242
102
}
330
71
100
AcDbEntity
  8
0
  6
Continuous
 62
     2
100
AcDbLine
 10
-1050.885409519268
 20
-1118.723935262547
 30
0.0
 11
-1050.885409519268
 21
-1118.11839997404
 31
0.0
  0
LINE
  5
158
102
{ACAD_REACTORS
330
241
330
242
102
}
330
71
100
AcDbEntity
  8
0
  6
Continuous
 62
     2
100
AcDbLine
 10
-1050.885409519268
 20
-1121.524069869178
 30
0.0
 11
-1050.885409519268
 21
-1120.942218462483
 31
0.0
  0
LINE
  5
159
102
{ACAD_REACTORS
330
243
330
244
102
}
330
71
100
AcDbEntity
  8
0
  6
Continuous
 62
     2
100
AcDbLine
 10
-1028.255923083789
 20
-1121.234405801055
 30
0.0
 11
-1028.255923083789
 21
-1123.502950018742
 31
0.0
  0
LINE
  5
15A
102
{ACAD_REACTORS
330
243
330
244
102
}
330
71
100
AcDbEntity
  8
0
  6
Continuous
 62
     2
100
AcDbLine
 10
-1029.636976862776
 20
-1120.449140494932
 30
0.0
 11
-1026.252031344147
 21
-1120.449140494931
 31
0.0
  0
LINE
  5
15B
102
{ACAD_REACTORS
330
243
330
244
102
}
330
71
100
AcDbEntity
  8
0
  6
Continuous
 62
     2
100
AcDbLine
 10
-1026.252031344147
 20
-1121.234405801055
 30
0.0
 11
-1026.252031344147
 21
-1120.449140494931
 31
0.0
  0
LINE
  5
15C
102
{ACAD_REACTORS
330
243
330
244
102
}
330
71
100
AcDbEntity
  8
0
  6
Continuous
 62
     2
100
AcDbLine
 10
-1027.063130381621
 20
-1121.234405801055
 30
0.0
 11
-1026.252031344147
 21
-1121.234405801055
 31
0.0
  0
LINE
  5
15D
102
{ACAD_REACTORS
330
243
330
244
102
}
330
71
100
AcDbEntity
  8
0
  6
Continuous
 62
     2
100
AcDbLine
 10
-1027.063130381621
 20
-1123.502950018742
 30
0.0
 11
-1027.063130381621
 21
-1121.234405801055
 31
0.0
  0
LINE
  5
15E
102
{ACAD_REACTORS
330
243
330
244
102
}
330
71
100
AcDbEntity
  8
0
  6
Continuous
 62
     2
100
AcDbLine
 10
-1028.255923083789
 20
-1123.502950018742
 30
0.0
 11
-1027.063130381621
 21
-1123.502950018742
 31
0.0
  0
LINE
  5
15F
102
{ACAD_REACTORS
330
239
330
23A
102
}
330
71
100
AcDbEntity
  8
0
  6
Continuous
 62
     2
100
AcDbLine
 10
-1028.952514021853
 20
-1117.089950018757
 30
0.0
 11
-1030.355238239602
 21
-1117.089950018757
 31
0.0
  0
LINE
  5
160
102
{ACAD_REACTORS
330
239
330
23A
102
}
330
71
100
AcDbEntity
  8
0
  6
Continuous
 62
     2
100
AcDbLine
 10
-1028.952514021853
 20
-1117.089950018757
 30
0.0
 11
-1028.351346499961
 21
-1117.769773340312
 31
0.0
  0
LINE
  5
161
102
{ACAD_REACTORS
330
239
330
23A
102
}
330
71
100
AcDbEntity
  8
0
  6
Continuous
 62
     2
100
AcDbLine
 10
-1028.351346499961
 20
-1117.769773340312
 30
0.0
 11
-1027.750178978069
 21
-1117.089950018757
 31
0.0
  0
LINE
  5
162
102
{ACAD_REACTORS
330
239
330
23A
102
}
330
71
100
AcDbEntity
  8
0
  6
Continuous
 62
     2
100
AcDbLine
 10
-1027.649984391088
 20
-1118.562900548793
 30
0.0
 11
-1026.347454760321
 21
-1117.089950018757
 31
0.0
  0
LINE
  5
163
102
{ACAD_REACTORS
330
239
330
23A
102
}
330
71
100
AcDbEntity
  8
0
  6
Continuous
 62
     2
100
AcDbLine
 10
-1027.649984391088
 20
-1118.562900548793
 30
0.0
 11
-1026.252031344147
 21
-1120.143759542568
 31
0.0
  0
LINE
  5
164
102
{ACAD_REACTORS
330
239
330
23A
102
}
330
71
100
AcDbEntity
  8
0
  6
Continuous
 62
     2
100
AcDbLine
 10
-1027.654755561896
 20
-1120.143759542568
 30
0.0
 11
-1026.252031344147
 21
-1120.143759542568
 31
0.0
  0
LINE
  5
165
102
{ACAD_REACTORS
330
239
330
23A
102
}
330
71
100
AcDbEntity
  8
0
  6
Continuous
 62
     2
100
AcDbLine
 10
-1028.351346499961
 20
-1119.356027757274
 30
0.0
 11
-1027.654755561896
 21
-1120.143759542568
 31
0.0
  0
LINE
  5
166
102
{ACAD_REACTORS
330
237
330
238
102
}
330
71
100
AcDbEntity
  8
0
  6
Continuous
 62
     2
100
AcDbLine
 10
-1031.810445336245
 20
-1117.089950018757
 30
0.0
 11
-1030.569940925992
 21
-1117.089950018757
 31
0.0
  0
LINE
  5
167
102
{ACAD_REACTORS
330
237
330
238
102
}
330
71
100
AcDbEntity
  8
0
  6
Continuous
 62
     2
100
AcDbLine
 10
-1030.569940925992
 20
-1117.089950018757
 30
0.0
 11
-1030.569940925992
 21
-1120.143759542568
 31
0.0
  0
LINE
  5
168
102
{ACAD_REACTORS
330
237
330
238
102
}
330
71
100
AcDbEntity
  8
0
  6
Continuous
 62
     2
100
AcDbLine
 10
-1031.810445336245
 20
-1120.143759542568
 30
0.0
 11
-1031.810445336245
 21
-1117.089950018757
 31
0.0
  0
LINE
  5
169
102
{ACAD_REACTORS
330
235
330
236
102
}
330
71
100
AcDbEntity
  8
0
  6
Continuous
 62
     2
100
AcDbLine
 10
-1033.278755418783
 20
-1122.281426209218
 30
0.0
 11
-1032.97859018159
 21
-1121.513611243231
 31
0.0
  0
LINE
  5
16A
102
{ACAD_REACTORS
330
235
330
236
102
}
330
71
100
AcDbEntity
  8
0
  6
Continuous
 62
     2
100
AcDbLine
 10
-1033.756291023403
 20
-1123.502950018742
 30
0.0
 11
-1033.544810969928
 21
-1122.961989474524
 31
0.0
  0
LINE
  5
16B
102
{ACAD_REACTORS
330
235
330
236
102
}
330
71
100
AcDbEntity
  8
0
  6
Continuous
 62
     2
100
AcDbLine
 10
-1033.598842386717
 20
-1120.449140494931
 30
0.0
 11
-1034.996795433656
 21
-1123.502950018742
 31
0.0
  0
LINE
  5
16C
102
{ACAD_REACTORS
330
235
330
236
102
}
330
71
100
AcDbEntity
  8
0
  6
Continuous
 62
     2
100
AcDbLine
 10
-1030.960384929524
 20
-1123.502950018742
 30
0.0
 11
-1032.200889339778
 21
-1123.502950018742
 31
0.0
  0
LINE
  5
16D
102
{ACAD_REACTORS
330
235
330
236
102
}
330
71
100
AcDbEntity
  8
0
  6
Continuous
 62
     2
100
AcDbLine
 10
-1033.544810969928
 20
-1122.961989474524
 30
0.0
 11
-1032.412369393254
 21
-1122.961989474524
 31
0.0
  0
LINE
  5
16E
102
{ACAD_REACTORS
330
233
330
234
102
}
330
71
100
AcDbEntity
  8
0
  6
Continuous
 62
     2
100
AcDbLine
 10
-1037.154307572839
 20
-1121.234405801055
 30
0.0
 11
-1036.343208535364
 21
-1121.234405801055
 31
0.0
  0
LINE
  5
16F
102
{ACAD_REACTORS
330
233
330
234
102
}
330
71
100
AcDbEntity
  8
0
  6
Continuous
 62
     2
100
AcDbLine
 10
-1034.339316795725
 20
-1120.449140494931
 30
0.0
 11
-1037.154307572839
 21
-1120.449140494931
 31
0.0
  0
LINE
  5
170
102
{ACAD_REACTORS
330
233
330
234
102
}
330
71
100
AcDbEntity
  8
0
  6
Continuous
 62
     2
100
AcDbLine
 10
-1034.339316795725
 20
-1121.234405801055
 30
0.0
 11
-1034.339316795725
 21
-1120.449140494931
 31
0.0
  0
LINE
  5
171
102
{ACAD_REACTORS
330
233
330
234
102
}
330
71
100
AcDbEntity
  8
0
  6
Continuous
 62
     2
100
AcDbLine
 10
-1035.150415833198
 20
-1121.234405801055
 30
0.0
 11
-1034.339316795725
 21
-1121.234405801055
 31
0.0
  0
LINE
  5
172
102
{ACAD_REACTORS
330
233
330
234
102
}
330
71
100
AcDbEntity
  8
0
  6
Continuous
 62
     2
100
AcDbLine
 10
-1035.150415833198
 20
-1123.502950018742
 30
0.0
 11
-1035.150415833198
 21
-1121.234405801055
 31
0.0
  0
LINE
  5
173
102
{ACAD_REACTORS
330
231
330
232
102
}
330
71
100
AcDbEntity
  8
0
  6
Continuous
 62
     2
100
AcDbLine
 10
-1034.4823009891
 20
-1120.143759542568
 30
0.0
 11
-1034.4823009891
 21
-1118.834984032363
 31
0.0
  0
LINE
  5
174
102
{ACAD_REACTORS
330
231
330
232
102
}
330
71
100
AcDbEntity
  8
0
  6
Continuous
 62
     2
100
AcDbLine
 10
-1035.675093691266
 20
-1117.089950018757
 30
0.0
 11
-1035.675093691266
 21
-1120.143759542568
 31
0.0
  0
LINE
  5
175
102
{ACAD_REACTORS
330
231
330
232
102
}
330
71
100
AcDbEntity
  8
0
  6
Continuous
 62
     2
100
AcDbLine
 10
-1034.4823009891
 20
-1117.089950018757
 30
0.0
 11
-1035.675093691266
 21
-1117.089950018757
 31
0.0
  0
LINE
  5
176
102
{ACAD_REACTORS
330
231
330
232
102
}
330
71
100
AcDbEntity
  8
0
  6
Continuous
 62
     2
100
AcDbLine
 10
-1033.241796578845
 20
-1117.089950018757
 30
0.0
 11
-1033.241796578845
 21
-1118.398725528962
 31
0.0
  0
LINE
  5
177
102
{ACAD_REACTORS
330
22F
330
230
102
}
330
71
100
AcDbEntity
  8
0
  6
Continuous
 62
     2
100
AcDbLine
 10
-1040.923532511686
 20
-1120.449140494931
 30
0.0
 11
-1040.923532511686
 21
-1123.502950018742
 31
0.0
  0
LINE
  5
178
102
{ACAD_REACTORS
330
22F
330
230
102
}
330
71
100
AcDbEntity
  8
0
  6
Continuous
 62
     2
100
AcDbLine
 10
-1039.730739809518
 20
-1120.449140494931
 30
0.0
 11
-1040.923532511686
 21
-1120.449140494931
 31
0.0
  0
LINE
  5
179
102
{ACAD_REACTORS
330
22F
330
230
102
}
330
71
100
AcDbEntity
  8
0
  6
Continuous
 62
     2
100
AcDbLine
 10
-1038.490235399265
 20
-1123.502950018742
 30
0.0
 11
-1037.297442697099
 21
-1123.502950018742
 31
0.0
  0
LINE
  5
17A
102
{ACAD_REACTORS
330
22F
330
230
102
}
330
71
100
AcDbEntity
  8
0
  6
Continuous
 62
     2
100
AcDbLine
 10
-1040.923532511686
 20
-1123.502950018742
 30
0.0
 11
-1039.730739809518
 21
-1123.502950018742
 31
0.0
  0
LINE
  5
17B
102
{ACAD_REACTORS
330
23F
330
240
102
}
330
71
100
AcDbEntity
  8
0
  6
Continuous
 62
     2
100
AcDbLine
 10
-1037.249580058126
 20
-1118.267847977942
 30
0.0
 11
-1037.249580058126
 21
-1117.7879636242
 31
0.0
  0
LINE
  5
17C
102
{ACAD_REACTORS
330
23F
330
240
102
}
330
71
100
AcDbEntity
  8
0
  6
Continuous
 62
     2
100
AcDbLine
 10
-1035.913652231699
 20
-1118.267847977942
 30
0.0
 11
-1037.249580058126
 21
-1118.267847977942
 31
0.0
  0
LINE
  5
17D
102
{ACAD_REACTORS
330
23F
330
240
102
}
330
71
100
AcDbEntity
  8
0
  6
Continuous
 62
     2
100
AcDbLine
 10
-1035.913652231699
 20
-1118.965861583384
 30
0.0
 11
-1035.913652231699
 21
-1118.267847977942
 31
0.0
  0
LINE
  5
17E
102
{ACAD_REACTORS
330
23F
330
240
102
}
330
71
100
AcDbEntity
  8
0
  6
Continuous
 62
     2
100
AcDbLine
 10
-1037.249580058126
 20
-1118.965861583384
 30
0.0
 11
-1035.913652231699
 21
-1118.965861583384
 31
0.0
  0
LINE
  5
17F
102
{ACAD_REACTORS
330
22D
330
22E
102
}
330
71
100
AcDbEntity
  8
0
  6
Continuous
 62
     2
100
AcDbLine
 10
-1040.732534748453
 20
-1117.089950018757
 30
0.0
 11
-1040.732534748453
 21
-1120.143759542568
 31
0.0
  0
LINE
  5
180
102
{ACAD_REACTORS
330
22D
330
22E
102
}
330
71
100
AcDbEntity
  8
0
  6
Continuous
 62
     2
100
AcDbLine
 10
-1040.732534748453
 20
-1120.143759542568
 30
0.0
 11
-1041.92532745062
 21
-1120.143759542568
 31
0.0
  0
LINE
  5
181
102
{ACAD_REACTORS
330
22D
330
22E
102
}
330
71
100
AcDbEntity
  8
0
  6
Continuous
 62
     2
100
AcDbLine
 10
-1041.92532745062
 20
-1120.143759542568
 30
0.0
 11
-1041.92532745062
 21
-1119.009487433724
 31
0.0
  0
LINE
  5
182
102
{ACAD_REACTORS
330
22D
330
22E
102
}
330
71
100
AcDbEntity
  8
0
  6
Continuous
 62
     2
100
AcDbLine
 10
-1042.974985028527
 20
-1120.143759542568
 30
0.0
 11
-1044.167777730694
 21
-1120.143759542568
 31
0.0
  0
LINE
  5
183
102
{ACAD_REACTORS
330
22D
330
22E
102
}
330
71
100
AcDbEntity
  8
0
  6
Continuous
 62
     2
100
AcDbLine
 10
-1044.167777730694
 20
-1117.089950018757
 30
0.0
 11
-1042.974985028527
 21
-1117.089950018757
 31
0.0
  0
LINE
  5
184
102
{ACAD_REACTORS
330
22D
330
22E
102
}
330
71
100
AcDbEntity
  8
0
  6
Continuous
 62
     2
100
AcDbLine
 10
-1042.974985028527
 20
-1117.089950018757
 30
0.0
 11
-1042.974985028527
 21
-1118.158783352091
 31
0.0
  0
LINE
  5
185
102
{ACAD_REACTORS
330
22D
330
22E
102
}
330
71
100
AcDbEntity
  8
0
  6
Continuous
 62
     2
100
AcDbLine
 10
-1042.974985028527
 20
-1118.158783352091
 30
0.0
 11
-1041.92532745062
 21
-1118.158783352091
 31
0.0
  0
LINE
  5
186
102
{ACAD_REACTORS
330
23B
330
23C
102
}
330
71
100
AcDbEntity
  8
0
  6
Continuous
 62
     2
100
AcDbLine
 10
-1046.123957762248
 20
-1117.753055864197
 30
0.0
 11
-1045.806662700706
 21
-1117.753055864197
 31
0.0
  0
LINE
  5
187
102
{ACAD_REACTORS
330
23B
330
23C
102
}
330
71
100
AcDbEntity
  8
0
  6
Continuous
 62
     2
100
AcDbLine
 10
-1046.123957762248
 20
-1118.458783513539
 30
0.0
 11
-1045.806662700706
 21
-1118.458783513539
 31
0.0
  0
LINE
  5
188
102
{ACAD_REACTORS
330
23B
330
23C
102
}
330
71
100
AcDbEntity
  8
0
  6
Continuous
 62
     2
100
AcDbLine
 10
-1047.364462172502
 20
-1117.089950018757
 30
0.0
 11
-1047.364462172502
 21
-1120.143759542568
 31
0.0
  0
LINE
  5
189
102
{ACAD_REACTORS
330
23B
330
23C
102
}
330
71
100
AcDbEntity
  8
0
  6
Continuous
 62
     2
100
AcDbLine
 10
-1047.364462172502
 20
-1117.089950018757
 30
0.0
 11
-1045.365190174467
 21
-1117.089950018757
 31
0.0
  0
LINE
  5
18A
102
{ACAD_REACTORS
330
23B
330
23C
102
}
330
71
100
AcDbEntity
  8
0
  6
Continuous
 62
     2
100
AcDbLine
 10
-1046.123957762248
 20
-1119.200681301424
 30
0.0
 11
-1045.365190174467
 21
-1119.200681301424
 31
0.0
  0
LINE
  5
18B
102
{ACAD_REACTORS
330
241
330
242
102
}
330
71
100
AcDbEntity
  8
0
  6
Continuous
 62
     2
100
AcDbLine
 10
-1053.460958205798
 20
-1118.118222497392
 30
0.0
 11
-1053.460958205798
 21
-1122.474677540109
 31
0.0
  0
LINE
  5
18C
102
{ACAD_REACTORS
330
241
330
242
102
}
330
71
100
AcDbEntity
  8
0
  6
Continuous
 62
     2
100
AcDbLine
 10
-1053.145241282723
 20
-1117.802505574315
 30
0.0
 11
-1051.669408021713
 21
-1117.802505574315
 31
0.0
  0
LINE
  5
18D
102
{ACAD_REACTORS
330
241
330
242
102
}
330
71
100
AcDbEntity
  8
0
  6
Continuous
 62
     2
100
AcDbLine
 10
-1051.353691098636
 20
-1118.722247116452
 30
0.0
 11
-1051.353691098636
 21
-1118.118222497392
 31
0.0
  0
LINE
  5
18E
102
{ACAD_REACTORS
330
241
330
242
102
}
330
71
100
AcDbEntity
  8
0
  6
Continuous
 62
     2
100
AcDbLine
 10
-1051.353691098636
 20
-1122.474677540109
 30
0.0
 11
-1051.353691098636
 21
-1120.943906608577
 31
0.0
  0
LINE
  5
18F
102
{ACAD_REACTORS
330
241
330
242
102
}
330
71
100
AcDbEntity
  8
0
  6
Continuous
 62
     2
100
AcDbLine
 10
-1048.265823868752
 20
-1123.502950018742
 30
0.0
 11
-1053.739135959469
 21
-1123.502950018742
 31
0.0
  0
LINE
  5
190
102
{ACAD_REACTORS
330
241
330
242
102
}
330
71
100
AcDbEntity
  8
0
  6
Continuous
 62
     2
100
AcDbLine
 10
-1047.841579253369
 20
-1117.514194634159
 30
0.0
 11
-1047.841579253369
 21
-1123.078705403359
 31
0.0
  0
LINE
  5
191
102
{ACAD_REACTORS
330
241
330
242
102
}
330
71
100
AcDbEntity
  8
0
  6
Continuous
 62
     2
100
AcDbLine
 10
-1053.739135959469
 20
-1117.089950018775
 30
0.0
 11
-1048.265823868752
 21
-1117.089950018775
 31
0.0
  0
LINE
  5
192
102
{ACAD_REACTORS
330
241
330
242
102
}
330
71
100
AcDbEntity
  8
0
  6
Continuous
 62
     2
100
AcDbLine
 10
-1054.163380574852
 20
-1117.514194634159
 30
0.0
 11
-1054.163380574852
 21
-1123.078705403359
 31
0.0
  0
LINE
  5
193
102
{ACAD_REACTORS
330
241
330
242
102
}
330
71
100
AcDbEntity
  8
0
  6
Continuous
 62
     2
100
AcDbLine
 10
-1051.669408021713
 20
-1122.790394463185
 30
0.0
 11
-1053.145241282723
 21
-1122.790394463185
 31
0.0
  0
LINE
  5
194
102
{ACAD_REACTORS
330
23B
330
23C
102
}
330
71
100
AcDbEntity
  8
0
  6
Continuous
 62
     2
100
AcDbLine
 10
-1046.123957762248
 20
-1120.143759542568
 30
0.0
 11
-1046.123957762248
 21
-1119.200681301424
 31
0.0
  0
LINE
  5
195
102
{ACAD_REACTORS
330
23B
330
23C
102
}
330
71
100
AcDbEntity
  8
0
  6
Continuous
 62
     2
100
AcDbLine
 10
-1047.364462172502
 20
-1120.143759542568
 30
0.0
 11
-1046.123957762248
 21
-1120.143759542568
 31
0.0
  0
LINE
  5
196
102
{ACAD_REACTORS
330
23B
330
23C
102
}
330
71
100
AcDbEntity
  8
0
  6
Continuous
 62
     2
100
AcDbLine
 10
-1046.123957762248
 20
-1118.458783513539
 30
0.0
 11
-1046.123957762248
 21
-1117.753055864197
 31
0.0
  0
LINE
  5
197
102
{ACAD_REACTORS
330
22D
330
22E
102
}
330
71
100
AcDbEntity
  8
0
  6
Continuous
 62
     2
100
AcDbLine
 10
-1044.167777730694
 20
-1117.089950018757
 30
0.0
 11
-1044.167777730694
 21
-1120.143759542568
 31
0.0
  0
LINE
  5
198
102
{ACAD_REACTORS
330
22D
330
22E
102
}
330
71
100
AcDbEntity
  8
0
  6
Continuous
 62
     2
100
AcDbLine
 10
-1042.974985028527
 20
-1119.009487433724
 30
0.0
 11
-1042.974985028527
 21
-1120.143759542568
 31
0.0
  0
LINE
  5
199
102
{ACAD_REACTORS
330
22D
330
22E
102
}
330
71
100
AcDbEntity
  8
0
  6
Continuous
 62
     2
100
AcDbLine
 10
-1041.92532745062
 20
-1119.009487433724
 30
0.0
 11
-1042.974985028527
 21
-1119.009487433724
 31
0.0
  0
LINE
  5
19A
102
{ACAD_REACTORS
330
22D
330
22E
102
}
330
71
100
AcDbEntity
  8
0
  6
Continuous
 62
     2
100
AcDbLine
 10
-1041.92532745062
 20
-1117.089950018757
 30
0.0
 11
-1040.732534748453
 21
-1117.089950018757
 31
0.0
  0
LINE
  5
19B
102
{ACAD_REACTORS
330
22D
330
22E
102
}
330
71
100
AcDbEntity
  8
0
  6
Continuous
 62
     2
100
AcDbLine
 10
-1041.92532745062
 20
-1118.158783352091
 30
0.0
 11
-1041.92532745062
 21
-1117.089950018757
 31
0.0
  0
LINE
  5
19C
102
{ACAD_REACTORS
330
23F
330
240
102
}
330
71
100
AcDbEntity
  8
0
  6
Continuous
 62
     2
100
AcDbLine
 10
-1035.913652231699
 20
-1117.7879636242
 30
0.0
 11
-1035.913652231699
 21
-1117.089950018757
 31
0.0
  0
LINE
  5
19D
102
{ACAD_REACTORS
330
23F
330
240
102
}
330
71
100
AcDbEntity
  8
0
  6
Continuous
 62
     2
100
AcDbLine
 10
-1039.06397195548
 20
-1117.089950018757
 30
0.0
 11
-1035.913652231699
 21
-1117.089950018757
 31
0.0
  0
LINE
  5
19E
102
{ACAD_REACTORS
330
23F
330
240
102
}
330
71
100
AcDbEntity
  8
0
  6
Continuous
 62
     2
100
AcDbLine
 10
-1039.06397195548
 20
-1120.143759542568
 30
0.0
 11
-1035.913652231699
 21
-1120.143759542568
 31
0.0
  0
LINE
  5
19F
102
{ACAD_REACTORS
330
23F
330
240
102
}
330
71
100
AcDbEntity
  8
0
  6
Continuous
 62
     2
100
AcDbLine
 10
-1035.913652231699
 20
-1120.143759542568
 30
0.0
 11
-1035.913652231699
 21
-1119.445745937126
 31
0.0
  0
LINE
  5
1A0
102
{ACAD_REACTORS
330
23F
330
240
102
}
330
71
100
AcDbEntity
  8
0
  6
Continuous
 62
     2
100
AcDbLine
 10
-1035.913652231699
 20
-1119.445745937126
 30
0.0
 11
-1037.249580058126
 21
-1119.445745937126
 31
0.0
  0
LINE
  5
1A1
102
{ACAD_REACTORS
330
23F
330
240
102
}
330
71
100
AcDbEntity
  8
0
  6
Continuous
 62
     2
100
AcDbLine
 10
-1037.249580058126
 20
-1119.445745937126
 30
0.0
 11
-1037.249580058126
 21
-1118.965861583384
 31
0.0
  0
LINE
  5
1A2
102
{ACAD_REACTORS
330
23F
330
240
102
}
330
71
100
AcDbEntity
  8
0
  6
Continuous
 62
     2
100
AcDbLine
 10
-1037.249580058126
 20
-1117.7879636242
 30
0.0
 11
-1035.913652231699
 21
-1117.7879636242
 31
0.0
  0
LINE
  5
1A3
102
{ACAD_REACTORS
330
22F
330
230
102
}
330
71
100
AcDbEntity
  8
0
  6
Continuous
 62
     2
100
AcDbLine
 10
-1039.730739809518
 20
-1123.502950018742
 30
0.0
 11
-1039.730739809518
 21
-1122.194174508538
 31
0.0
  0
LINE
  5
1A4
102
{ACAD_REACTORS
330
22F
330
230
102
}
330
71
100
AcDbEntity
  8
0
  6
Continuous
 62
     2
100
AcDbLine
 10
-1039.730739809518
 20
-1122.194174508538
 30
0.0
 11
-1038.490235399265
 21
-1123.502950018742
 31
0.0
  0
LINE
  5
1A5
102
{ACAD_REACTORS
330
22F
330
230
102
}
330
71
100
AcDbEntity
  8
0
  6
Continuous
 62
     2
100
AcDbLine
 10
-1037.297442697099
 20
-1123.502950018742
 30
0.0
 11
-1037.297442697099
 21
-1120.449140494931
 31
0.0
  0
LINE
  5
1A6
102
{ACAD_REACTORS
330
22F
330
230
102
}
330
71
100
AcDbEntity
  8
0
  6
Continuous
 62
     2
100
AcDbLine
 10
-1037.297442697099
 20
-1120.449140494931
 30
0.0
 11
-1038.490235399265
 21
-1120.449140494931
 31
0.0
  0
LINE
  5
1A7
102
{ACAD_REACTORS
330
22F
330
230
102
}
330
71
100
AcDbEntity
  8
0
  6
Continuous
 62
     2
100
AcDbLine
 10
-1038.490235399265
 20
-1120.449140494931
 30
0.0
 11
-1038.490235399265
 21
-1121.757916005136
 31
0.0
  0
LINE
  5
1A8
102
{ACAD_REACTORS
330
22F
330
230
102
}
330
71
100
AcDbEntity
  8
0
  6
Continuous
 62
     2
100
AcDbLine
 10
-1038.490235399265
 20
-1121.757916005136
 30
0.0
 11
-1039.730739809518
 21
-1120.449140494931
 31
0.0
  0
LINE
  5
1A9
102
{ACAD_REACTORS
330
231
330
232
102
}
330
71
100
AcDbEntity
  8
0
  6
Continuous
 62
     2
100
AcDbLine
 10
-1034.4823009891
 20
-1118.834984032363
 30
0.0
 11
-1033.241796578845
 21
-1120.143759542568
 31
0.0
  0
LINE
  5
1AA
102
{ACAD_REACTORS
330
231
330
232
102
}
330
71
100
AcDbEntity
  8
0
  6
Continuous
 62
     2
100
AcDbLine
 10
-1033.241796578845
 20
-1120.143759542568
 30
0.0
 11
-1032.049003876679
 21
-1120.143759542568
 31
0.0
  0
LINE
  5
1AB
102
{ACAD_REACTORS
330
231
330
232
102
}
330
71
100
AcDbEntity
  8
0
  6
Continuous
 62
     2
100
AcDbLine
 10
-1032.049003876679
 20
-1120.143759542568
 30
0.0
 11
-1032.049003876679
 21
-1117.089950018757
 31
0.0
  0
LINE
  5
1AC
102
{ACAD_REACTORS
330
231
330
232
102
}
330
71
100
AcDbEntity
  8
0
  6
Continuous
 62
     2
100
AcDbLine
 10
-1032.049003876679
 20
-1117.089950018757
 30
0.0
 11
-1033.241796578845
 21
-1117.089950018757
 31
0.0
  0
LINE
  5
1AD
102
{ACAD_REACTORS
330
231
330
232
102
}
330
71
100
AcDbEntity
  8
0
  6
Continuous
 62
     2
100
AcDbLine
 10
-1033.241796578845
 20
-1118.398725528962
 30
0.0
 11
-1034.4823009891
 21
-1117.089950018757
 31
0.0
  0
LINE
  5
1AE
102
{ACAD_REACTORS
330
231
330
232
102
}
330
71
100
AcDbEntity
  8
0
  6
Continuous
 62
     2
100
AcDbLine
 10
-1035.675093691266
 20
-1120.143759542568
 30
0.0
 11
-1034.4823009891
 21
-1120.143759542568
 31
0.0
  0
LINE
  5
1AF
102
{ACAD_REACTORS
330
233
330
234
102
}
330
71
100
AcDbEntity
  8
0
  6
Continuous
 62
     2
100
AcDbLine
 10
-1037.154307572839
 20
-1120.449140494931
 30
0.0
 11
-1037.154307572839
 21
-1121.234405801055
 31
0.0
  0
LINE
  5
1B0
102
{ACAD_REACTORS
330
233
330
234
102
}
330
71
100
AcDbEntity
  8
0
  6
Continuous
 62
     2
100
AcDbLine
 10
-1036.343208535364
 20
-1121.234405801055
 30
0.0
 11
-1036.343208535364
 21
-1123.502950018742
 31
0.0
  0
LINE
  5
1B1
102
{ACAD_REACTORS
330
233
330
234
102
}
330
71
100
AcDbEntity
  8
0
  6
Continuous
 62
     2
100
AcDbLine
 10
-1036.343208535364
 20
-1123.502950018742
 30
0.0
 11
-1035.150415833198
 21
-1123.502950018742
 31
0.0
  0
LINE
  5
1B2
102
{ACAD_REACTORS
330
235
330
236
102
}
330
71
100
AcDbEntity
  8
0
  6
Continuous
 62
     2
100
AcDbLine
 10
-1032.200889339778
 20
-1123.502950018742
 30
0.0
 11
-1032.412369393254
 21
-1122.961989474524
 31
0.0
  0
LINE
  5
1B3
102
{ACAD_REACTORS
330
235
330
236
102
}
330
71
100
AcDbEntity
  8
0
  6
Continuous
 62
     2
100
AcDbLine
 10
-1032.358337976464
 20
-1120.449140494931
 30
0.0
 11
-1030.960384929524
 21
-1123.502950018742
 31
0.0
  0
LINE
  5
1B4
102
{ACAD_REACTORS
330
235
330
236
102
}
330
71
100
AcDbEntity
  8
0
  6
Continuous
 62
     2
100
AcDbLine
 10
-1033.598842386717
 20
-1120.449140494931
 30
0.0
 11
-1032.358337976464
 21
-1120.449140494931
 31
0.0
  0
LINE
  5
1B5
102
{ACAD_REACTORS
330
235
330
236
102
}
330
71
100
AcDbEntity
  8
0
  6
Continuous
 62
     2
100
AcDbLine
 10
-1034.996795433656
 20
-1123.502950018742
 30
0.0
 11
-1033.756291023403
 21
-1123.502950018742
 31
0.0
  0
LINE
  5
1B6
102
{ACAD_REACTORS
330
235
330
236
102
}
330
71
100
AcDbEntity
  8
0
  6
Continuous
 62
     2
100
AcDbLine
 10
-1033.278755418783
 20
-1122.281426209218
 30
0.0
 11
-1032.6784249444
 21
-1122.281426209218
 31
0.0
  0
LINE
  5
1B7
102
{ACAD_REACTORS
330
235
330
236
102
}
330
71
100
AcDbEntity
  8
0
  6
Continuous
 62
     2
100
AcDbLine
 10
-1032.6784249444
 20
-1122.281426209218
 30
0.0
 11
-1032.97859018159
 21
-1121.513611243231
 31
0.0
  0
LINE
  5
1B8
102
{ACAD_REACTORS
330
237
330
238
102
}
330
71
100
AcDbEntity
  8
0
  6
Continuous
 62
     2
100
AcDbLine
 10
-1030.569940925992
 20
-1120.143759542568
 30
0.0
 11
-1031.810445336245
 21
-1120.143759542568
 31
0.0
  0
LINE
  5
1B9
102
{ACAD_REACTORS
330
239
330
23A
102
}
330
71
100
AcDbEntity
  8
0
  6
Continuous
 62
     2
100
AcDbLine
 10
-1029.047937438027
 20
-1120.143759542568
 30
0.0
 11
-1030.450661655775
 21
-1120.143759542568
 31
0.0
  0
LINE
  5
1BA
102
{ACAD_REACTORS
330
239
330
23A
102
}
330
71
100
AcDbEntity
  8
0
  6
Continuous
 62
     2
100
AcDbLine
 10
-1029.047937438027
 20
-1120.143759542568
 30
0.0
 11
-1028.351346499961
 21
-1119.356027757274
 31
0.0
  0
LINE
  5
1BB
102
{ACAD_REACTORS
330
239
330
23A
102
}
330
71
100
AcDbEntity
  8
0
  6
Continuous
 62
     2
100
AcDbLine
 10
-1027.750178978069
 20
-1117.089950018757
 30
0.0
 11
-1026.347454760321
 21
-1117.089950018757
 31
0.0
  0
LINE
  5
1BC
102
{ACAD_REACTORS
330
239
330
23A
102
}
330
71
100
AcDbEntity
  8
0
  6
Continuous
 62
     2
100
AcDbLine
 10
-1030.355238239602
 20
-1117.089950018757
 30
0.0
 11
-1029.052708608835
 21
-1118.562900548793
 31
0.0
  0
LINE
  5
1BD
102
{ACAD_REACTORS
330
239
330
23A
102
}
330
71
100
AcDbEntity
  8
0
  6
Continuous
 62
     2
100
AcDbLine
 10
-1030.450661655775
 20
-1120.143759542568
 30
0.0
 11
-1029.052708608835
 21
-1118.562900548793
 31
0.0
  0
LINE
  5
1BE
102
{ACAD_REACTORS
330
243
330
244
102
}
330
71
100
AcDbEntity
  8
0
  6
Continuous
 62
     2
100
AcDbLine
 10
-1028.589905040395
 20
-1122.455929610579
 30
0.0
 11
-1028.589905040395
 21
-1123.328446617382
 31
0.0
  0
LINE
  5
1BF
102
{ACAD_REACTORS
330
243
330
244
102
}
330
71
100
AcDbEntity
  8
0
  6
Continuous
 62
     2
100
AcDbLine
 10
-1029.359562383357
 20
-1121.234405801055
 30
0.0
 11
-1028.255923083789
 21
-1121.234405801055
 31
0.0
  0
LINE
  5
1C0
102
{ACAD_REACTORS
330
245
330
246
102
}
330
71
100
AcDbEntity
  8
0
  6
Continuous
 62
     2
100
AcDbLine
 10
-1044.692606519647
 20
-1122.455929610578
 30
0.0
 11
-1044.692606519647
 21
-1123.328446617381
 31
0.0
  0
LINE
  5
1C1
102
{ACAD_REACTORS
330
245
330
246
102
}
330
71
100
AcDbEntity
  8
0
  6
Continuous
 62
     2
100
AcDbLine
 10
-1044.692606519647
 20
-1121.496160903095
 30
0.0
 11
-1044.692606519647
 21
-1120.623643896292
 31
0.0
  0
LINE
  5
1C2
330
71
100
AcDbEntity
  8
1
  6
Continuous
 62
     7
100
AcDbLine
 10
-928.8552309346633
 20
-1122.296450018759
 30
0.0
 11
-1022.000035461415
 21
-1122.296450018759
 31
0.0
  0
LINE
  5
1C3
330
71
100
AcDbEntity
  8
1
  6
Continuous
 62
     6
100
AcDbLine
 10
-1127.400035461415
 20
-1130.796450018759
 30
0.0
 11
-1172.355230934665
 21
-1130.796450018759
 31
0.0
  0
LINE
  5
1C4
330
71
100
AcDbEntity
  8
1
  6
Continuous
 62
     7
100
AcDbLine
 10
-937.7736392163421
 20
-1105.296450018759
 30
0.0
 11
-937.7736392163421
 21
-1113.796450018759
 31
0.0
  0
LINE
  5
1C5
330
71
100
AcDbEntity
  8
1
  6
Continuous
 62
     7
100
AcDbLine
 10
-964.2736392163416
 20
-1105.296450018759
 30
0.0
 11
-964.2736392163416
 21
-1113.796450018759
 31
0.0
  0
LINE
  5
1C6
330
71
100
AcDbEntity
  8
1
  6
Continuous
 62
     7
100
AcDbLine
 10
-1022.000035461415
 20
-1113.796450018759
 30
0.0
 11
-1022.000035461415
 21
-1105.296450018759
 31
0.0
  0
LINE
  5
1C7
330
71
100
AcDbEntity
  8
1
  6
Continuous
 62
     7
100
AcDbLine
 10
-1058.400035461415
 20
-1113.796450018759
 30
0.0
 11
-1058.400035461415
 21
-1105.296450018759
 31
0.0
  0
LINE
  5
1C8
330
71
100
AcDbEntity
  8
1
  6
Continuous
 62
     6
100
AcDbLine
 10
-1022.000035461415
 20
-1113.796450018759
 30
0.0
 11
-928.8552309346628
 21
-1113.796450018759
 31
0.0
  0
LINE
  5
1C9
330
71
100
AcDbEntity
  8
1
  6
Continuous
 62
     7
100
AcDbLine
 10
-994.1000354614146
 20
-1122.296450018759
 30
0.0
 11
-994.1000354614146
 21
-1113.796450018759
 31
0.0
  0
LINE
  5
1CA
330
71
100
AcDbEntity
  8
1
  6
PHANTOM
 62
     2
100
AcDbLine
 10
-1042.913380574852
 20
-1109.671450018759
 30
0.0
 11
-1048.413380574852
 21
-1109.671450018759
 31
0.0
  0
LINE
  5
1CB
330
71
100
AcDbEntity
  8
1
  6
PHANTOM
 62
     2
100
AcDbLine
 10
-1045.663380574852
 20
-1106.921450018759
 30
0.0
 11
-1045.663380574852
 21
-1112.421450018759
 31
0.0
  0
LINE
  5
1CC
330
71
100
AcDbEntity
  8
1
  6
DOT_CENTER
 62
     2
100
AcDbLine
 10
-1054.413380574852
 20
-1109.671450018759
 30
0.0
 11
-1048.913380574852
 21
-1109.671450018759
 31
0.0
  0
ARC
  5
1CD
102
{ACAD_REACTORS
330
245
330
246
102
}
330
71
100
AcDbEntity
  8
0
  6
Continuous
 62
     2
100
AcDbCircle
 10
-1046.028534436765
 20
-1125.288726202093
 30
0.0
 40
4.852596863498252
100
AcDbArc
 50
74.02000874164347
 51
84.8418552303745
  0
ARC
  5
1CE
102
{ACAD_REACTORS
330
245
330
246
102
}
330
71
100
AcDbEntity
  8
0
  6
Continuous
 62
     2
100
AcDbCircle
 10
-1045.452493828011
 20
-1122.132965846209
 30
0.0
 40
0.9059297849853586
100
AcDbArc
 50
71.5519238819035
 51
113.3722778881232
  0
ARC
  5
1CF
102
{ACAD_REACTORS
330
245
330
246
102
}
330
71
100
AcDbEntity
  8
0
  6
Continuous
 62
     2
100
AcDbCircle
 10
-1045.608933860713
 20
-1122.181116686176
 30
0.0
 40
0.5115800601943484
100
AcDbArc
 50
208.5214732576218
 51
246.6277221117943
  0
ARC
  5
1D0
102
{ACAD_REACTORS
330
245
330
246
102
}
330
71
100
AcDbEntity
  8
0
  6
Continuous
 62
     2
100
AcDbCircle
 10
-1045.452493828011
 20
-1121.819124667466
 30
0.0
 40
0.905929784984726
100
AcDbArc
 50
246.627722111854
 51
288.4480761181147
  0
ARC
  5
1D1
102
{ACAD_REACTORS
330
245
330
246
102
}
330
71
100
AcDbEntity
  8
0
  6
Continuous
 62
     2
100
AcDbCircle
 10
-1045.870661561672
 20
-1120.565578891428
 30
0.0
 40
2.227384008973294
100
AcDbArc
 50
288.4480761181133
 51
301.9309089499615
  0
ARC
  5
1D2
102
{ACAD_REACTORS
330
241
330
242
102
}
330
71
100
AcDbEntity
  8
0
  6
Continuous
 62
     2
100
AcDbCircle
 10
-1051.095735294279
 20
-1119.833076862514
 30
0.0
 40
0.9118481501446578
100
AcDbArc
 50
295.3740086781903
 51
64.6259913217852
  0
ARC
  5
1D3
102
{ACAD_REACTORS
330
241
330
242
102
}
330
71
100
AcDbEntity
  8
0
  6
Continuous
 62
     2
100
AcDbCircle
 10
-1050.569692596191
 20
-1118.11839997404
 30
0.0
 40
0.315716923076013
100
AcDbArc
 50
90.18896704247891
 51
180.0
  0
ARC
  5
1D4
102
{ACAD_REACTORS
330
243
330
244
102
}
330
71
100
AcDbEntity
  8
0
  6
Continuous
 62
     2
100
AcDbCircle
 10
-1029.359562383357
 20
-1122.188928807881
 30
0.0
 40
0.9545230068260935
100
AcDbArc
 50
90.0
 51
109.3371432194156
  0
ARC
  5
1D5
102
{ACAD_REACTORS
330
243
330
244
102
}
330
71
100
AcDbEntity
  8
0
  6
Continuous
 62
     2
100
AcDbCircle
 10
-1029.128875123379
 20
-1121.976045256837
 30
0.0
 40
0.9410597353352762
100
AcDbArc
 50
151.4785267423811
 51
208.5214732576676
  0
ARC
  5
1D6
102
{ACAD_REACTORS
330
243
330
244
102
}
330
71
100
AcDbEntity
  8
0
  6
Continuous
 62
     2
100
AcDbCircle
 10
-1029.349792348757
 20
-1121.819124667466
 30
0.0
 40
0.9059297849850868
100
AcDbArc
 50
246.6277221118012
 51
288.4480761180602
  0
ARC
  5
1D7
102
{ACAD_REACTORS
330
243
330
244
102
}
330
71
100
AcDbEntity
  8
0
  6
Continuous
 62
     2
100
AcDbCircle
 10
-1029.767960082419
 20
-1120.565578891429
 30
0.0
 40
2.227384008972431
100
AcDbArc
 50
288.4480761181208
 51
301.9309089499367
  0
ARC
  5
1D8
102
{ACAD_REACTORS
330
243
330
244
102
}
330
71
100
AcDbEntity
  8
0
  6
Continuous
 62
     2
100
AcDbCircle
 10
-1029.925832957512
 20
-1118.663364311581
 30
0.0
 40
4.852596863498024
100
AcDbArc
 50
275.1581447696362
 51
285.9799912583437
  0
ARC
  5
1D9
102
{ACAD_REACTORS
330
243
330
244
102
}
330
71
100
AcDbEntity
  8
0
  6
Continuous
 62
     2
100
AcDbCircle
 10
-1029.636976862776
 20
-1121.863254894802
 30
0.0
 40
1.639695123940421
100
AcDbArc
 50
195.0618917771015
 51
275.1581447696655
  0
ARC
  5
1DA
102
{ACAD_REACTORS
330
23B
330
23C
102
}
330
71
100
AcDbEntity
  8
0
  6
Continuous
 62
     2
100
AcDbCircle
 10
-1045.365190174467
 20
-1118.145315660091
 30
0.0
 40
1.055365641333083
100
AcDbArc
 50
270.0
 51
90.0
  0
ARC
  5
1DB
102
{ACAD_REACTORS
330
241
330
242
102
}
330
71
100
AcDbEntity
  8
0
  6
Continuous
 62
     2
100
AcDbCircle
 10
-1053.145241282723
 20
-1122.474677540109
 30
0.0
 40
0.3157169230751151
100
AcDbArc
 50
180.0
 51
270.0
  0
ARC
  5
1DC
102
{ACAD_REACTORS
330
241
330
242
102
}
330
71
100
AcDbEntity
  8
0
  6
Continuous
 62
     2
100
AcDbCircle
 10
-1051.669408021713
 20
-1118.118222497392
 30
0.0
 40
0.3157169230769341
100
AcDbArc
 50
0.0
 51
90.0
  0
ARC
  5
1DD
102
{ACAD_REACTORS
330
241
330
242
102
}
330
71
100
AcDbEntity
  8
0
  6
Continuous
 62
     2
100
AcDbCircle
 10
-1051.669408021713
 20
-1118.722247116452
 30
0.0
 40
0.3157169230761294
100
AcDbArc
 50
295.1944106484705
 51
0.0
  0
ARC
  5
1DE
102
{ACAD_REACTORS
330
241
330
242
102
}
330
71
100
AcDbEntity
  8
0
  6
Continuous
 62
     2
100
AcDbCircle
 10
-1051.669408021713
 20
-1122.474677540109
 30
0.0
 40
0.3157169230760246
100
AcDbArc
 50
270.0
 51
0.0
  0
ARC
  5
1DF
102
{ACAD_REACTORS
330
241
330
242
102
}
330
71
100
AcDbEntity
  8
0
  6
Continuous
 62
     2
100
AcDbCircle
 10
-1053.739135959469
 20
-1117.514194634159
 30
0.0
 40
0.424244615383941
100
AcDbArc
 50
90.0
 51
180.0
  0
ARC
  5
1E0
102
{ACAD_REACTORS
330
241
330
242
102
}
330
71
100
AcDbEntity
  8
0
  6
Continuous
 62
     2
100
AcDbCircle
 10
-1048.265823868752
 20
-1117.514194634159
 30
0.0
 40
0.4242446153830315
100
AcDbArc
 50
0.0
 51
90.0
  0
ARC
  5
1E1
102
{ACAD_REACTORS
330
241
330
242
102
}
330
71
100
AcDbEntity
  8
0
  6
Continuous
 62
     2
100
AcDbCircle
 10
-1048.265823868752
 20
-1123.078705403359
 30
0.0
 40
0.4242446153830315
100
AcDbArc
 50
270.0
 51
0.0
  0
ARC
  5
1E2
102
{ACAD_REACTORS
330
23F
330
240
102
}
330
71
100
AcDbEntity
  8
0
  6
Continuous
 62
     2
100
AcDbCircle
 10
-1039.047439981661
 20
-1118.616854780663
 30
0.0
 40
0.7717997786795062
100
AcDbArc
 50
321.8795802028254
 51
38.12041979717461
  0
ARC
  5
1E3
102
{ACAD_REACTORS
330
23F
330
240
102
}
330
71
100
AcDbEntity
  8
0
  6
Continuous
 62
     2
100
AcDbCircle
 10
-1038.847699945315
 20
-1118.773585958783
 30
0.0
 40
0.5179085730138424
100
AcDbArc
 50
218.1204197971879
 51
321.8795802028121
  0
ARC
  5
1E4
102
{ACAD_REACTORS
330
23D
330
23E
102
}
330
71
100
AcDbEntity
  8
0
  6
Continuous
 62
     2
100
AcDbCircle
 10
-1042.527707534275
 20
-1121.976045256837
 30
0.0
 40
1.458034083652424
100
AcDbArc
 50
297.5481481757063
 51
62.45185182428134
  0
ARC
  5
1E5
102
{ACAD_REACTORS
330
23D
330
23E
102
}
330
71
100
AcDbEntity
  8
0
  6
Continuous
 62
     2
100
AcDbCircle
 10
-1043.089587317942
 20
-1121.976045256837
 30
0.0
 40
1.458034083650978
100
AcDbArc
 50
117.5481481756553
 51
242.4518518243571
  0
ARC
  5
1E6
102
{ACAD_REACTORS
330
23D
330
23E
102
}
330
71
100
AcDbEntity
  8
0
  6
Continuous
 62
     2
100
AcDbCircle
 10
-1042.808647426108
 20
-1122.51462026714
 30
0.0
 40
2.065479772208346
100
AcDbArc
 50
62.45185182429604
 51
117.548148175676
  0
ARC
  5
1E7
102
{ACAD_REACTORS
330
23D
330
23E
102
}
330
71
100
AcDbEntity
  8
0
  6
Continuous
 62
     2
100
AcDbCircle
 10
-1042.808647426108
 20
-1121.437470246534
 30
0.0
 40
2.065479772208626
100
AcDbArc
 50
242.4518518243356
 51
297.5481481756923
  0
ARC
  5
1E8
102
{ACAD_REACTORS
330
23F
330
240
102
}
330
71
100
AcDbEntity
  8
0
  6
Continuous
 62
     2
100
AcDbCircle
 10
-1038.647959908969
 20
-1118.616854780663
 30
0.0
 40
0.7717997786796852
100
AcDbArc
 50
141.8795802028358
 51
218.1204197971642
  0
ARC
  5
1E9
102
{ACAD_REACTORS
330
23F
330
240
102
}
330
71
100
AcDbEntity
  8
0
  6
Continuous
 62
     2
100
AcDbCircle
 10
-1038.847699945315
 20
-1118.460123602542
 30
0.0
 40
0.5179085730131405
100
AcDbArc
 50
38.12041979708892
 51
141.8795802029111
  0
ARC
  5
1EA
102
{ACAD_REACTORS
330
241
330
242
102
}
330
71
100
AcDbEntity
  8
0
  6
Continuous
 62
     2
100
AcDbCircle
 10
-1053.739135959469
 20
-1123.078705403359
 30
0.0
 40
0.4242446153830315
100
AcDbArc
 50
180.0
 51
270.0
  0
ARC
  5
1EB
102
{ACAD_REACTORS
330
241
330
242
102
}
330
71
100
AcDbEntity
  8
0
  6
Continuous
 62
     2
100
AcDbCircle
 10
-1051.669408021713
 20
-1120.943906608577
 30
0.0
 40
0.3157169230769341
100
AcDbArc
 50
0.0
 51
64.80558935154704
  0
ARC
  5
1EC
102
{ACAD_REACTORS
330
241
330
242
102
}
330
71
100
AcDbEntity
  8
0
  6
Continuous
 62
     2
100
AcDbCircle
 10
-1051.146823574138
 20
-1119.833076862514
 30
0.0
 40
0.9118975235573831
100
AcDbArc
 50
115.1944106485686
 51
244.8055893514557
  0
ARC
  5
1ED
102
{ACAD_REACTORS
330
241
330
242
102
}
330
71
100
AcDbEntity
  8
0
  6
Continuous
 62
     2
100
AcDbCircle
 10
-1053.145241282723
 20
-1118.118222497392
 30
0.0
 40
0.3157169230769341
100
AcDbArc
 50
90.0
 51
180.0
  0
ARC
  5
1EE
102
{ACAD_REACTORS
330
23B
330
23C
102
}
330
71
100
AcDbEntity
  8
0
  6
Continuous
 62
     2
100
AcDbCircle
 10
-1045.806662700706
 20
-1118.105919688868
 30
0.0
 40
0.3528638246709761
100
AcDbArc
 50
270.0
 51
90.0
  0
ARC
  5
1EF
102
{ACAD_REACTORS
330
23F
330
240
102
}
330
71
100
AcDbEntity
  8
0
  6
Continuous
 62
     2
100
AcDbCircle
 10
-1039.06397195548
 20
-1118.616854780663
 30
0.0
 40
1.526904761906053
100
AcDbArc
 50
90.0
 51
270.0
  0
ARC
  5
1F0
102
{ACAD_REACTORS
330
243
330
244
102
}
330
71
100
AcDbEntity
  8
0
  6
Continuous
 62
     2
100
AcDbCircle
 10
-1029.636976862776
 20
-1122.088835618872
 30
0.0
 40
1.639695123940101
100
AcDbArc
 50
90.0
 51
164.9381082228985
  0
ARC
  5
1F1
102
{ACAD_REACTORS
330
243
330
244
102
}
330
71
100
AcDbEntity
  8
0
  6
Continuous
 62
     2
100
AcDbCircle
 10
-1030.056104706238
 20
-1121.976045256837
 30
0.0
 40
1.205656168392464
100
AcDbArc
 50
164.9381082229043
 51
195.0618917770853
  0
ARC
  5
1F2
102
{ACAD_REACTORS
330
243
330
244
102
}
330
71
100
AcDbEntity
  8
0
  6
Continuous
 62
     2
100
AcDbCircle
 10
-1029.50623238146
 20
-1122.181116686176
 30
0.0
 40
0.5115800601966893
100
AcDbArc
 50
208.5214732576243
 51
246.6277221117943
  0
ARC
  5
1F3
102
{ACAD_REACTORS
330
243
330
244
102
}
330
71
100
AcDbEntity
  8
0
  6
Continuous
 62
     2
100
AcDbCircle
 10
-1029.50623238146
 20
-1121.770973827498
 30
0.0
 40
0.51158006019477
100
AcDbArc
 50
109.3371432195219
 51
151.4785267424876
  0
ARC
  5
1F4
102
{ACAD_REACTORS
330
241
330
242
102
}
330
71
100
AcDbEntity
  8
0
  6
Continuous
 62
     2
100
AcDbCircle
 10
-1050.569692596191
 20
-1121.524069869178
 30
0.0
 40
0.3157169230769341
100
AcDbArc
 50
180.0
 51
269.8110329575211
  0
ARC
  5
1F5
102
{ACAD_REACTORS
330
241
330
242
102
}
330
71
100
AcDbEntity
  8
0
  6
Continuous
 62
     2
100
AcDbCircle
 10
-1050.564076460881
 20
-1119.821234921609
 30
0.0
 40
2.018561131933151
100
AcDbArc
 50
269.8110329575971
 51
90.18896704240287
  0
ARC
  5
1F6
102
{ACAD_REACTORS
330
241
330
242
102
}
330
71
100
AcDbEntity
  8
0
  6
Continuous
 62
     2
100
AcDbCircle
 10
-1050.569692596191
 20
-1118.723935262547
 30
0.0
 40
0.3157169230769341
100
AcDbArc
 50
180.0
 51
244.6259913216508
  0
ARC
  5
1F7
102
{ACAD_REACTORS
330
241
330
242
102
}
330
71
100
AcDbEntity
  8
0
  6
Continuous
 62
     2
100
AcDbCircle
 10
-1050.569692596191
 20
-1120.942218462483
 30
0.0
 40
0.3157169230768611
100
AcDbArc
 50
115.3740086782608
 51
180.0
  0
ARC
  5
1F8
102
{ACAD_REACTORS
330
245
330
246
102
}
330
71
100
AcDbEntity
  8
0
  6
Continuous
 62
     2
100
AcDbCircle
 10
-1045.739678342029
 20
-1122.088835618872
 30
0.0
 40
1.63969512394044
100
AcDbArc
 50
84.84185523036614
 51
164.9381082228882
  0
ARC
  5
1F9
102
{ACAD_REACTORS
330
245
330
246
102
}
330
71
100
AcDbEntity
  8
0
  6
Continuous
 62
     2
100
AcDbCircle
 10
-1046.158806185492
 20
-1121.976045256837
 30
0.0
 40
1.205656168390488
100
AcDbArc
 50
164.938108222879
 51
195.0618917771105
  0
ARC
  5
1FA
102
{ACAD_REACTORS
330
245
330
246
102
}
330
71
100
AcDbEntity
  8
0
  6
Continuous
 62
     2
100
AcDbCircle
 10
-1045.739678342029
 20
-1121.863254894802
 30
0.0
 40
1.639695123939323
100
AcDbArc
 50
195.0618917771118
 51
275.1581447696339
  0
ARC
  5
1FB
102
{ACAD_REACTORS
330
245
330
246
102
}
330
71
100
AcDbEntity
  8
0
  6
Continuous
 62
     2
100
AcDbCircle
 10
-1046.028534436765
 20
-1118.663364311581
 30
0.0
 40
4.852596863497943
100
AcDbArc
 50
275.1581447696255
 51
285.9799912583603
  0
ARC
  5
1FC
102
{ACAD_REACTORS
330
245
330
246
102
}
330
71
100
AcDbEntity
  8
0
  6
Continuous
 62
     2
100
AcDbCircle
 10
-1045.231576602633
 20
-1121.976045256837
 30
0.0
 40
0.941059735333222
100
AcDbArc
 50
151.4785267422343
 51
208.5214732576927
  0
ARC
  5
1FD
102
{ACAD_REACTORS
330
245
330
246
102
}
330
71
100
AcDbEntity
  8
0
  6
Continuous
 62
     2
100
AcDbCircle
 10
-1045.608933860713
 20
-1121.770973827498
 30
0.0
 40
0.5115800601952438
100
AcDbArc
 50
113.3722778882057
 51
151.4785267422663
  0
ARC
  5
1FE
102
{ACAD_REACTORS
330
245
330
246
102
}
330
71
100
AcDbEntity
  8
0
  6
Continuous
 62
     2
100
AcDbCircle
 10
-1045.870661561672
 20
-1123.386511622245
 30
0.0
 40
2.227384008973766
100
AcDbArc
 50
58.06909105003847
 51
71.55192388187925
  0
ARC
  5
1FF
102
{ACAD_REACTORS
330
23D
330
23E
102
}
330
71
100
AcDbEntity
  8
0
  6
Continuous
 62
     2
100
AcDbCircle
 10
-1042.808647426108
 20
-1121.819314078717
 30
0.0
 40
0.5179085730138424
100
AcDbArc
 50
38.12041979718787
 51
141.8795802027966
  0
ARC
  5
200
102
{ACAD_REACTORS
330
23D
330
23E
102
}
330
71
100
AcDbEntity
  8
0
  6
Continuous
 62
     2
100
AcDbCircle
 10
-1042.608907389762
 20
-1121.976045256837
 30
0.0
 40
0.7717997786795062
100
AcDbArc
 50
141.8795802028254
 51
218.1204197971613
  0
ARC
  5
201
102
{ACAD_REACTORS
330
23D
330
23E
102
}
330
71
100
AcDbEntity
  8
0
  6
Continuous
 62
     2
100
AcDbCircle
 10
-1042.808647426108
 20
-1122.132776434957
 30
0.0
 40
0.5179085730136636
100
AcDbArc
 50
218.1204197972034
 51
321.8795802028121
  0
ARC
  5
202
102
{ACAD_REACTORS
330
23D
330
23E
102
}
330
71
100
AcDbEntity
  8
0
  6
Continuous
 62
     2
100
AcDbCircle
 10
-1043.008387462455
 20
-1121.976045256837
 30
0.0
 40
0.7717997786800814
100
AcDbArc
 50
321.8795802028803
 51
38.12041979713293
  0
CIRCLE
  5
203
330
71
100
AcDbEntity
  8
1
  6
Continuous
 62
     2
100
AcDbCircle
 10
-1045.663380574852
 20
-1109.671450018759
 30
0.0
 40
2.5
  0
CIRCLE
  5
204
330
71
100
AcDbEntity
  8
1
  6
Continuous
 62
     2
100
AcDbCircle
 10
-1045.663380574852
 20
-1109.671450018759
 30
0.0
 40
1.25
  0
CIRCLE
  5
205
102
{ACAD_REACTORS
330
241
330
242
102
}
330
71
100
AcDbEntity
  8
0
  6
Continuous
 62
     2
100
AcDbCircle
 10
-1051.119550308952
 20
-1119.833076862514
 30
0.0
 40
0.4709789327789622
  0
MTEXT
  5
206
330
71
100
AcDbEntity
  8
1
 62
     3
100
AcDbMText
 10
-1215.850163148593
 20
-944.0051418634598
 30
0.0
 40
1.8
 41
0.0
 71
     7
 72
     1
  3
Weitergabe sowie Vervielf\U+00e4ltigung dieses Dokuments, Verwertung und \PMitteilung seines Inhalts sind verboten, soweit nicht ausdr\U+00fccklich gestattet. \PZuwiderhandlungen verpflichten zu Schadenersatz. Alle Rechte f\U+00fcr den Fall\Pder Pat
  1
ent-, Gebrauchsmuster- oder Designeintragung vorbehalten.
  7
CONVERTER_11
 73
     1
 44
0.99639855942377
  0
MTEXT
  5
207
330
71
100
AcDbEntity
  8
1
 62
     3
100
AcDbMText
 10
-1032.997053309805
 20
-944.0051418634598
 30
0.0
 40
1.8
 41
0.0
 71
     7
 72
     1
  3
Transfer or duplication of this document as well as the utilisation or\Pcommunication of its content are not permitted unless express consent\Pis granted. Violations give rise to claims for damages. All rights reserved\Pin case of patent, utility mo
  1
del or design patent registrations.
  7
CONVERTER_11
 73
     1
 44
0.99639855942377
  0
TEXT
  5
208
330
71
100
AcDbEntity
  8
1
 62
     2
100
AcDbText
 10
-1039.200035461415
 20
-1129.55546723375
 30
0.0
 40
1.8
  1
of
 41
0.9
  7
CONVERTER_11
100
AcDbText
  0
TEXT
  5
209
330
71
100
AcDbEntity
  8
1
 62
     2
100
AcDbText
 10
-1057.400035461415
 20
-1129.55546723375
 30
0.0
 40
1.8
  1
page
 41
0.9
  7
CONVERTER_11
100
AcDbText
  0
TEXT
  5
20A
330
71
100
AcDbEntity
  8
1
 62
     2
100
AcDbText
 10
-1048.753770491073
 20
-1129.595698672561
 30
0.0
 40
1.8
  1
1
 41
0.9
  7
CONVERTER_11
100
AcDbText
  0
TEXT
  5
20B
330
71
100
AcDbEntity
  8
1
 62
     2
100
AcDbText
 10
-1033.964726651601
 20
-1129.546450018759
 30
0.0
 40
1.8
  1
1
 41
0.9
  7
CONVERTER_11
100
AcDbText
  0
MTEXT
  5
20D
330
71
100
AcDbEntity
  8
1
 62
     7
100
AcDbMText
 10
-975.4276331980391
 20
-1127.546450018758
 30
0.0
 40
3.0
 41
0.0
 71
     5
 72
     1
  1
C-RC 10/M8 DIN
  7
CONVERTER_12
 73
     1
 44
1.20048019207683
  0
MTEXT
  5
20E
330
71
100
AcDbEntity
  8
1
 62
     2
100
AcDbMText
 10
-1021.000035461415
 20
-1123.296450018759
 30
0.0
 40
1.8
 41
0.0
 71
     1
 72
     1
  1
description
  7
CONVERTER_11
 73
     1
 44
1.20048019207683
  0
MTEXT
  5
20F
330
71
100
AcDbEntity
  8
1
 62
     3
100
AcDbMText
 10
-1032.200035461415
 20
-1109.671450018759
 30
0.0
 40
2.5
 41
0.0
 71
     5
 72
     1
  1
DIN A4
  7
CONVERTER_11
 73
     1
 44
1.20048019207683
  0
MTEXT
  5
210
330
71
100
AcDbEntity
  8
1
 62
     7
100
AcDbMText
 10
-1218.355230934664
 20
-1108.296450018759
 30
0.0
 40
3.5
 41
0.0
 71
     5
 72
     1
  1
D
  7
CONVERTER_11
 73
     1
 44
1.20048019207683
  0
MTEXT
  5
211
330
71
100
AcDbEntity
  8
1
 62
     7
100
AcDbMText
 10
-1218.355230934664
 20
-1055.796450018759
 30
0.0
 40
3.5
 41
0.0
 71
     5
 72
     1
  1
C
  7
CONVERTER_11
 73
     1
 44
1.20048019207683
  0
MTEXT
  5
212
330
71
100
AcDbEntity
  8
1
 62
     7
100
AcDbMText
 10
-1218.355230934664
 20
-1005.796450018759
 30
0.0
 40
3.5
 41
0.0
 71
     5
 72
     1
  1
B
  7
CONVERTER_11
 73
     1
 44
1.20048019207683
  0
MTEXT
  5
213
330
71
100
AcDbEntity
  8
1
 62
     7
100
AcDbMText
 10
-1218.355230934664
 20
-953.2964500187586
 30
0.0
 40
3.5
 41
0.0
 71
     5
 72
     1
  1
A
  7
CONVERTER_11
 73
     1
 44
1.20048019207683
  0
MTEXT
  5
214
330
71
100
AcDbEntity
  8
1
 62
     7
100
AcDbMText
 10
-948.1052309346653
 20
-1133.296450018759
 30
0.0
 40
3.5
 41
0.0
 71
     5
 72
     1
  1
6
  7
CONVERTER_11
 73
     1
 44
1.20048019207683
  0
MTEXT
  5
215
330
71
100
AcDbEntity
  8
1
 62
     7
100
AcDbMText
 10
-997.3552309346645
 20
-1133.296450018759
 30
0.0
 40
3.5
 41
0.0
 71
     5
 72
     1
  1
5
  7
CONVERTER_11
 73
     1
 44
1.20048019207683
  0
MTEXT
  5
216
330
71
100
AcDbEntity
  8
1
 62
     7
100
AcDbMText
 10
-1047.355230934665
 20
-1133.296450018759
 30
0.0
 40
3.5
 41
0.0
 71
     5
 72
     1
  1
4
  7
CONVERTER_11
 73
     1
 44
1.20048019207683
  0
MTEXT
  5
217
330
71
100
AcDbEntity
  8
1
 62
     7
100
AcDbMText
 10
-1097.355230934665
 20
-1133.296450018759
 30
0.0
 40
3.5
 41
0.0
 71
     5
 72
     1
  1
3
  7
CONVERTER_11
 73
     1
 44
1.20048019207683
  0
MTEXT
  5
218
330
71
100
AcDbEntity
  8
1
 62
     7
100
AcDbMText
 10
-1147.355230934665
 20
-1133.296450018759
 30
0.0
 40
3.5
 41
0.0
 71
     5
 72
     1
  1
2
  7
CONVERTER_11
 73
     1
 44
1.20048019207683
  0
MTEXT
  5
219
330
71
100
AcDbEntity
  8
1
 62
     7
100
AcDbMText
 10
-1196.605230934664
 20
-1133.296450018759
 30
0.0
 40
3.5
 41
0.0
 71
     5
 72
     1
  1
1
  7
CONVERTER_11
 73
     1
 44
1.20048019207683
  0
MTEXT
  5
21A
330
71
100
AcDbEntity
  8
1
 62
     7
100
AcDbMText
 10
-926.3552309346655
 20
-1108.296450018759
 30
0.0
 40
3.5
 41
0.0
 71
     5
 72
     1
  1
D
  7
CONVERTER_11
 73
     1
 44
1.20048019207683
  0
MTEXT
  5
21B
330
71
100
AcDbEntity
  8
1
 62
     7
100
AcDbMText
 10
-926.3552309346655
 20
-1005.796450018757
 30
0.0
 40
3.5
 41
0.0
 71
     5
 72
     1
  1
B
  7
CONVERTER_11
 73
     1
 44
1.20048019207683
  0
MTEXT
  5
21C
330
71
100
AcDbEntity
  8
1
 62
     7
100
AcDbMText
 10
-926.3552309346655
 20
-953.2964500187586
 30
0.0
 40
3.5
 41
0.0
 71
     5
 72
     1
  1
A
  7
CONVERTER_11
 73
     1
 44
1.20048019207683
  0
MTEXT
  5
21D
330
71
100
AcDbEntity
  8
1
 62
     7
100
AcDbMText
 10
-926.3552309346655
 20
-1055.796450018757
 30
0.0
 40
3.5
 41
0.0
 71
     5
 72
     1
  1
C
  7
CONVERTER_11
 73
     1
 44
1.20048019207683
  0
MTEXT
  5
21E
330
71
100
AcDbEntity
  8
1
 62
     2
100
AcDbMText
 10
-1092.838050186462
 20
-1118.046450018759
 30
0.0
 40
2.0
 41
0.0
 71
     5
 72
     1
  1
General Information\P- Simplified representation\P- Document excluded from change process\P- Linear dimensions [mm]
  7
CONVERTER_11
 73
     1
 44
1.20048019207683
  0
TEXT
  5
21F
330
71
100
AcDbEntity
  8
1
 62
     7
100
AcDbText
 10
-1020.500035461415
 20
-1120.996450018759
 30
0.0
 40
2.5
  1
3240091
 41
0.81
  7
CONVERTER_12
100
AcDbText
  0
MTEXT
  5
220
330
71
100
AcDbEntity
  8
1
 62
     2
100
AcDbMText
 10
-1020.900035461415
 20
-1114.796450018759
 30
0.0
 40
1.8
 41
0.0
 71
     1
 72
     1
  1
ident.-No.
  7
CONVERTER_11
 73
     1
 44
1.20048019207683
  0
MTEXT
  5
221
330
71
100
AcDbEntity
  8
1
 62
     2
100
AcDbMText
 10
-936.6736392163418
 20
-1106.296450018759
 30
0.0
 40
1.8
 41
0.0
 71
     1
 72
     1
  1
scale
  7
CONVERTER_11
 73
     1
 44
1.20048019207683
  0
MTEXT
  5
223
330
71
100
AcDbEntity
  8
1
 62
     3
100
AcDbMText
 10
-933.3144350755023
 20
-1112.496450018758
 30
0.0
 40
2.5
 41
0.0
 71
     8
 72
     1
  1
2:1
  7
CONVERTER_13
 73
     1
 44
1.32052821128451
  0
TEXT
  5
224
330
71
100
AcDbEntity
  8
1
 62
     7
100
AcDbText
 10
-1020.900035461415
 20
-1112.496450018759
 30
0.0
 40
2.5
  1
01077974
 41
0.81
  7
CONVERTER_12
100
AcDbText
  0
MTEXT
  5
226
330
71
100
AcDbEntity
  8
1
 62
     2
100
AcDbMText
 10
-1020.900035461415
 20
-1106.296450018759
 30
0.0
 40
1.8
 41
0.0
 71
     1
 72
     1
  1
document-No. / RI
  7
CONVERTER_14
 73
     1
 44
1.32052821128451
  0
TEXT
  5
227
330
71
100
AcDbEntity
  8
1
 62
     3
100
AcDbText
 10
-993.1000354614146
 20
-1120.996450018759
 30
0.0
 40
2.5
  1
 
 41
0.81
  7
CONVERTER_12
100
AcDbText
  0
MTEXT
  5
228
330
71
100
AcDbEntity
  8
1
 62
     2
100
AcDbMText
 10
-993.1000354614146
 20
-1114.796450018759
 30
0.0
 40
1.8
 41
0.0
 71
     1
 72
     1
  1
document-type
  7
CONVERTER_11
 73
     1
 44
1.20048019207683
  0
MTEXT
  5
229
330
71
100
AcDbEntity
  8
1
 62
     2
100
AcDbMText
 10
-963.2736392163416
 20
-1106.296450018759
 30
0.0
 40
1.8
 41
0.0
 71
     1
 72
     1
  1
date
  7
CONVERTER_11
 73
     1
 44
1.32052821128451
  0
TEXT
  5
22A
330
71
100
AcDbEntity
  8
1
 62
     3
100
AcDbText
 10
-963.2736392163416
 20
-1112.496450018759
 30
0.0
 40
2.5
  1
18.10.2017
 41
0.81
  7
CONVERTER_12
100
AcDbText
  0
TEXT
  5
22B
330
71
100
AcDbEntity
  8
1
 62
     7
100
AcDbText
 10
-1000.870123242359
 20
-1112.496450018759
 30
0.0
 40
2.5
  1
00
 41
0.81
  7
CONVERTER_12
100
AcDbText
  0
TEXT
  5
22C
330
71
100
AcDbEntity
  8
1
 62
     7
100
AcDbText
 10
-1003.026487739401
 20
-1112.496450018759
 30
0.0
 40
2.5
  1
/
 41
0.9
  7
CONVERTER_11
100
AcDbText
  0
HATCH
  5
22D
330
71
100
AcDbEntity
  8
1
  6
Continuous
 62
     2
100
AcDbHatch
 10
0.0
 20
0.0
 30
0.0
210
0.0
220
0.0
230
1.0
  2
_USER
 70
     0
 71
     1
 91
        1
 92
        1
 93
       12
 72
     1
 10
-1040.732534748453
 20
-1120.143759542568
 11
-1041.92532745062
 21
-1120.143759542568
 72
     1
 10
-1041.92532745062
 20
-1120.143759542568
 11
-1041.92532745062
 21
-1119.009487433724
 72
     1
 10
-1041.92532745062
 20
-1119.009487433724
 11
-1042.974985028527
 21
-1119.009487433724
 72
     1
 10
-1042.974985028527
 20
-1119.009487433724
 11
-1042.974985028527
 21
-1120.143759542568
 72
     1
 10
-1042.974985028527
 20
-1120.143759542568
 11
-1044.167777730694
 21
-1120.143759542568
 72
     1
 10
-1044.167777730694
 20
-1120.143759542568
 11
-1044.167777730694
 21
-1117.089950018757
 72
     1
 10
-1044.167777730694
 20
-1117.089950018757
 11
-1042.974985028527
 21
-1117.089950018757
 72
     1
 10
-1042.974985028527
 20
-1117.089950018757
 11
-1042.974985028527
 21
-1118.158783352091
 72
     1
 10
-1042.974985028527
 20
-1118.158783352091
 11
-1041.92532745062
 21
-1118.158783352091
 72
     1
 10
-1041.92532745062
 20
-1118.158783352091
 11
-1041.92532745062
 21
-1117.089950018757
 72
     1
 10
-1041.92532745062
 20
-1117.089950018757
 11
-1040.732534748453
 21
-1117.089950018757
 72
     1
 10
-1040.732534748453
 20
-1117.089950018757
 11
-1040.732534748453
 21
-1120.143759542568
 97
       12
330
19A
330
19B
330
185
330
184
330
183
330
197
330
182
330
198
330
199
330
181
330
180
330
17F
 75
     1
 76
     0
 52
45.0
 41
0.1
 77
     0
 78
     1
 53
45.0
 43
0.0
 44
0.0
 45
-0.0707106781186548
 46
0.0707106781186548
 79
     0
 98
        1
 10
0.0
 20
0.0
  0
HATCH
  5
22E
330
71
100
AcDbEntity
  8
1
  6
Continuous
 62
     2
100
AcDbHatch
 10
0.0
 20
0.0
 30
0.0
210
0.0
220
0.0
230
1.0
  2
_USER
 70
     0
 71
     1
 91
        1
 92
        1
 93
       12
 72
     1
 10
-1040.732534748453
 20
-1120.143759542568
 11
-1041.92532745062
 21
-1120.143759542568
 72
     1
 10
-1041.92532745062
 20
-1120.143759542568
 11
-1041.92532745062
 21
-1119.009487433724
 72
     1
 10
-1041.92532745062
 20
-1119.009487433724
 11
-1042.974985028527
 21
-1119.009487433724
 72
     1
 10
-1042.974985028527
 20
-1119.009487433724
 11
-1042.974985028527
 21
-1120.143759542568
 72
     1
 10
-1042.974985028527
 20
-1120.143759542568
 11
-1044.167777730694
 21
-1120.143759542568
 72
     1
 10
-1044.167777730694
 20
-1120.143759542568
 11
-1044.167777730694
 21
-1117.089950018757
 72
     1
 10
-1044.167777730694
 20
-1117.089950018757
 11
-1042.974985028527
 21
-1117.089950018757
 72
     1
 10
-1042.974985028527
 20
-1117.089950018757
 11
-1042.974985028527
 21
-1118.158783352091
 72
     1
 10
-1042.974985028527
 20
-1118.158783352091
 11
-1041.92532745062
 21
-1118.158783352091
 72
     1
 10
-1041.92532745062
 20
-1118.158783352091
 11
-1041.92532745062
 21
-1117.089950018757
 72
     1
 10
-1041.92532745062
 20
-1117.089950018757
 11
-1040.732534748453
 21
-1117.089950018757
 72
     1
 10
-1040.732534748453
 20
-1117.089950018757
 11
-1040.732534748453
 21
-1120.143759542568
 97
       12
330
19A
330
19B
330
185
330
184
330
183
330
197
330
182
330
198
330
199
330
181
330
180
330
17F
 75
     1
 76
     0
 52
45.0
 41
0.1
 77
     0
 78
     1
 53
45.0
 43
0.0
 44
0.0
 45
-0.0707106781186548
 46
0.0707106781186548
 79
     0
 98
        1
 10
0.0
 20
0.0
  0
HATCH
  5
22F
330
71
100
AcDbEntity
  8
1
  6
Continuous
 62
     2
100
AcDbHatch
 10
0.0
 20
0.0
 30
0.0
210
0.0
220
0.0
230
1.0
  2
_USER
 70
     0
 71
     1
 91
        1
 92
        1
 93
       10
 72
     1
 10
-1038.490235399265
 20
-1121.757916005136
 11
-1039.730739809518
 21
-1120.449140494931
 72
     1
 10
-1039.730739809518
 20
-1120.449140494931
 11
-1040.923532511686
 21
-1120.449140494931
 72
     1
 10
-1040.923532511686
 20
-1120.449140494931
 11
-1040.923532511686
 21
-1123.502950018742
 72
     1
 10
-1040.923532511686
 20
-1123.502950018742
 11
-1039.730739809518
 21
-1123.502950018742
 72
     1
 10
-1039.730739809518
 20
-1123.502950018742
 11
-1039.730739809518
 21
-1122.194174508538
 72
     1
 10
-1039.730739809518
 20
-1122.194174508538
 11
-1038.490235399265
 21
-1123.502950018742
 72
     1
 10
-1038.490235399265
 20
-1123.502950018742
 11
-1037.297442697099
 21
-1123.502950018742
 72
     1
 10
-1037.297442697099
 20
-1123.502950018742
 11
-1037.297442697099
 21
-1120.449140494931
 72
     1
 10
-1037.297442697099
 20
-1120.449140494931
 11
-1038.490235399265
 21
-1120.449140494931
 72
     1
 10
-1038.490235399265
 20
-1120.449140494931
 11
-1038.490235399265
 21
-1121.757916005136
 97
       10
330
1A8
330
178
330
177
330
17A
330
1A3
330
1A4
330
179
330
1A5
330
1A6
330
1A7
 75
     1
 76
     0
 52
45.0
 41
0.1
 77
     0
 78
     1
 53
45.0
 43
0.0
 44
0.0
 45
-0.0707106781186548
 46
0.0707106781186548
 79
     0
 98
        1
 10
0.0
 20
0.0
  0
HATCH
  5
230
330
71
100
AcDbEntity
  8
1
  6
Continuous
 62
     2
100
AcDbHatch
 10
0.0
 20
0.0
 30
0.0
210
0.0
220
0.0
230
1.0
  2
_USER
 70
     0
 71
     1
 91
        1
 92
        1
 93
       10
 72
     1
 10
-1038.490235399265
 20
-1121.757916005136
 11
-1039.730739809518
 21
-1120.449140494931
 72
     1
 10
-1039.730739809518
 20
-1120.449140494931
 11
-1040.923532511686
 21
-1120.449140494931
 72
     1
 10
-1040.923532511686
 20
-1120.449140494931
 11
-1040.923532511686
 21
-1123.502950018742
 72
     1
 10
-1040.923532511686
 20
-1123.502950018742
 11
-1039.730739809518
 21
-1123.502950018742
 72
     1
 10
-1039.730739809518
 20
-1123.502950018742
 11
-1039.730739809518
 21
-1122.194174508538
 72
     1
 10
-1039.730739809518
 20
-1122.194174508538
 11
-1038.490235399265
 21
-1123.502950018742
 72
     1
 10
-1038.490235399265
 20
-1123.502950018742
 11
-1037.297442697099
 21
-1123.502950018742
 72
     1
 10
-1037.297442697099
 20
-1123.502950018742
 11
-1037.297442697099
 21
-1120.449140494931
 72
     1
 10
-1037.297442697099
 20
-1120.449140494931
 11
-1038.490235399265
 21
-1120.449140494931
 72
     1
 10
-1038.490235399265
 20
-1120.449140494931
 11
-1038.490235399265
 21
-1121.757916005136
 97
       10
330
1A8
330
178
330
177
330
17A
330
1A3
330
1A4
330
179
330
1A5
330
1A6
330
1A7
 75
     1
 76
     0
 52
45.0
 41
0.1
 77
     0
 78
     1
 53
45.0
 43
0.0
 44
0.0
 45
-0.0707106781186548
 46
0.0707106781186548
 79
     0
 98
        1
 10
0.0
 20
0.0
  0
HATCH
  5
231
330
71
100
AcDbEntity
  8
1
  6
Continuous
 62
     2
100
AcDbHatch
 10
0.0
 20
0.0
 30
0.0
210
0.0
220
0.0
230
1.0
  2
_USER
 70
     0
 71
     1
 91
        1
 92
        1
 93
       10
 72
     1
 10
-1033.241796578845
 20
-1118.398725528962
 11
-1034.4823009891
 21
-1117.089950018757
 72
     1
 10
-1034.4823009891
 20
-1117.089950018757
 11
-1035.675093691266
 21
-1117.089950018757
 72
     1
 10
-1035.675093691266
 20
-1117.089950018757
 11
-1035.675093691266
 21
-1120.143759542568
 72
     1
 10
-1035.675093691266
 20
-1120.143759542568
 11
-1034.4823009891
 21
-1120.143759542568
 72
     1
 10
-1034.4823009891
 20
-1120.143759542568
 11
-1034.4823009891
 21
-1118.834984032363
 72
     1
 10
-1034.4823009891
 20
-1118.834984032363
 11
-1033.241796578845
 21
-1120.143759542568
 72
     1
 10
-1033.241796578845
 20
-1120.143759542568
 11
-1032.049003876679
 21
-1120.143759542568
 72
     1
 10
-1032.049003876679
 20
-1120.143759542568
 11
-1032.049003876679
 21
-1117.089950018757
 72
     1
 10
-1032.049003876679
 20
-1117.089950018757
 11
-1033.241796578845
 21
-1117.089950018757
 72
     1
 10
-1033.241796578845
 20
-1117.089950018757
 11
-1033.241796578845
 21
-1118.398725528962
 97
       10
330
1AD
330
175
330
174
330
1AE
330
173
330
1A9
330
1AA
330
1AB
330
1AC
330
176
 75
     1
 76
     0
 52
45.0
 41
0.1
 77
     0
 78
     1
 53
45.0
 43
0.0
 44
0.0
 45
-0.0707106781186548
 46
0.0707106781186548
 79
     0
 98
        1
 10
0.0
 20
0.0
  0
HATCH
  5
232
330
71
100
AcDbEntity
  8
1
  6
Continuous
 62
     2
100
AcDbHatch
 10
0.0
 20
0.0
 30
0.0
210
0.0
220
0.0
230
1.0
  2
_USER
 70
     0
 71
     1
 91
        1
 92
        1
 93
       10
 72
     1
 10
-1033.241796578845
 20
-1118.398725528962
 11
-1034.4823009891
 21
-1117.089950018757
 72
     1
 10
-1034.4823009891
 20
-1117.089950018757
 11
-1035.675093691266
 21
-1117.089950018757
 72
     1
 10
-1035.675093691266
 20
-1117.089950018757
 11
-1035.675093691266
 21
-1120.143759542568
 72
     1
 10
-1035.675093691266
 20
-1120.143759542568
 11
-1034.4823009891
 21
-1120.143759542568
 72
     1
 10
-1034.4823009891
 20
-1120.143759542568
 11
-1034.4823009891
 21
-1118.834984032363
 72
     1
 10
-1034.4823009891
 20
-1118.834984032363
 11
-1033.241796578845
 21
-1120.143759542568
 72
     1
 10
-1033.241796578845
 20
-1120.143759542568
 11
-1032.049003876679
 21
-1120.143759542568
 72
     1
 10
-1032.049003876679
 20
-1120.143759542568
 11
-1032.049003876679
 21
-1117.089950018757
 72
     1
 10
-1032.049003876679
 20
-1117.089950018757
 11
-1033.241796578845
 21
-1117.089950018757
 72
     1
 10
-1033.241796578845
 20
-1117.089950018757
 11
-1033.241796578845
 21
-1118.398725528962
 97
       10
330
1AD
330
175
330
174
330
1AE
330
173
330
1A9
330
1AA
330
1AB
330
1AC
330
176
 75
     1
 76
     0
 52
45.0
 41
0.1
 77
     0
 78
     1
 53
45.0
 43
0.0
 44
0.0
 45
-0.0707106781186548
 46
0.0707106781186548
 79
     0
 98
        1
 10
0.0
 20
0.0
  0
HATCH
  5
233
330
71
100
AcDbEntity
  8
1
  6
Continuous
 62
     2
100
AcDbHatch
 10
0.0
 20
0.0
 30
0.0
210
0.0
220
0.0
230
1.0
  2
_USER
 70
     0
 71
     1
 91
        1
 92
        1
 93
        8
 72
     1
 10
-1034.339316795725
 20
-1120.449140494931
 11
-1037.154307572839
 21
-1120.449140494931
 72
     1
 10
-1037.154307572839
 20
-1120.449140494931
 11
-1037.154307572839
 21
-1121.234405801055
 72
     1
 10
-1037.154307572839
 20
-1121.234405801055
 11
-1036.343208535364
 21
-1121.234405801055
 72
     1
 10
-1036.343208535364
 20
-1121.234405801055
 11
-1036.343208535364
 21
-1123.502950018742
 72
     1
 10
-1036.343208535364
 20
-1123.502950018742
 11
-1035.150415833198
 21
-1123.502950018742
 72
     1
 10
-1035.150415833198
 20
-1123.502950018742
 11
-1035.150415833198
 21
-1121.234405801055
 72
     1
 10
-1035.150415833198
 20
-1121.234405801055
 11
-1034.339316795725
 21
-1121.234405801055
 72
     1
 10
-1034.339316795725
 20
-1121.234405801055
 11
-1034.339316795725
 21
-1120.449140494931
 97
        8
330
16F
330
1AF
330
16E
330
1B0
330
1B1
330
172
330
171
330
170
 75
     1
 76
     0
 52
45.0
 41
0.1
 77
     0
 78
     1
 53
45.0
 43
0.0
 44
0.0
 45
-0.0707106781186548
 46
0.0707106781186548
 79
     0
 98
        1
 10
0.0
 20
0.0
  0
HATCH
  5
234
330
71
100
AcDbEntity
  8
1
  6
Continuous
 62
     2
100
AcDbHatch
 10
0.0
 20
0.0
 30
0.0
210
0.0
220
0.0
230
1.0
  2
_USER
 70
     0
 71
     1
 91
        1
 92
        1
 93
        8
 72
     1
 10
-1034.339316795725
 20
-1120.449140494931
 11
-1037.154307572839
 21
-1120.449140494931
 72
     1
 10
-1037.154307572839
 20
-1120.449140494931
 11
-1037.154307572839
 21
-1121.234405801055
 72
     1
 10
-1037.154307572839
 20
-1121.234405801055
 11
-1036.343208535364
 21
-1121.234405801055
 72
     1
 10
-1036.343208535364
 20
-1121.234405801055
 11
-1036.343208535364
 21
-1123.502950018742
 72
     1
 10
-1036.343208535364
 20
-1123.502950018742
 11
-1035.150415833198
 21
-1123.502950018742
 72
     1
 10
-1035.150415833198
 20
-1123.502950018742
 11
-1035.150415833198
 21
-1121.234405801055
 72
     1
 10
-1035.150415833198
 20
-1121.234405801055
 11
-1034.339316795725
 21
-1121.234405801055
 72
     1
 10
-1034.339316795725
 20
-1121.234405801055
 11
-1034.339316795725
 21
-1120.449140494931
 97
        8
330
16F
330
1AF
330
16E
330
1B0
330
1B1
330
172
330
171
330
170
 75
     1
 76
     0
 52
45.0
 41
0.1
 77
     0
 78
     1
 53
45.0
 43
0.0
 44
0.0
 45
-0.0707106781186548
 46
0.0707106781186548
 79
     0
 98
        1
 10
0.0
 20
0.0
  0
HATCH
  5
235
330
71
100
AcDbEntity
  8
1
  6
Continuous
 62
     2
100
AcDbHatch
 10
0.0
 20
0.0
 30
0.0
210
0.0
220
0.0
230
1.0
  2
_USER
 70
     0
 71
     1
 91
        2
 92
        1
 93
        8
 72
     1
 10
-1032.200889339778
 20
-1123.502950018742
 11
-1032.412369393254
 21
-1122.961989474524
 72
     1
 10
-1032.412369393254
 20
-1122.961989474524
 11
-1033.544810969928
 21
-1122.961989474524
 72
     1
 10
-1033.544810969928
 20
-1122.961989474524
 11
-1033.756291023403
 21
-1123.502950018742
 72
     1
 10
-1033.756291023403
 20
-1123.502950018742
 11
-1034.996795433656
 21
-1123.502950018742
 72
     1
 10
-1034.996795433656
 20
-1123.502950018742
 11
-1033.598842386717
 21
-1120.449140494931
 72
     1
 10
-1033.598842386717
 20
-1120.449140494931
 11
-1032.358337976464
 21
-1120.449140494931
 72
     1
 10
-1032.358337976464
 20
-1120.449140494931
 11
-1030.960384929524
 21
-1123.502950018742
 72
     1
 10
-1030.960384929524
 20
-1123.502950018742
 11
-1032.200889339778
 21
-1123.502950018742
 97
        8
330
1B3
330
1B4
330
16B
330
1B5
330
16A
330
16D
330
1B2
330
16C
 92
       16
 93
        3
 72
     1
 10
-1033.278755418783
 20
-1122.281426209218
 11
-1032.97859018159
 21
-1121.513611243231
 72
     1
 10
-1032.97859018159
 20
-1121.513611243231
 11
-1032.6784249444
 21
-1122.281426209218
 72
     1
 10
-1032.6784249444
 20
-1122.281426209218
 11
-1033.278755418783
 21
-1122.281426209218
 97
        3
330
169
330
1B7
330
1B6
 75
     1
 76
     0
 52
45.0
 41
0.1
 77
     0
 78
     1
 53
45.0
 43
0.0
 44
0.0
 45
-0.0707106781186548
 46
0.0707106781186548
 79
     0
 98
        1
 10
0.0
 20
0.0
  0
HATCH
  5
236
330
71
100
AcDbEntity
  8
1
  6
Continuous
 62
     2
100
AcDbHatch
 10
0.0
 20
0.0
 30
0.0
210
0.0
220
0.0
230
1.0
  2
_USER
 70
     0
 71
     1
 91
        2
 92
        1
 93
        8
 72
     1
 10
-1032.200889339778
 20
-1123.502950018742
 11
-1032.412369393254
 21
-1122.961989474524
 72
     1
 10
-1032.412369393254
 20
-1122.961989474524
 11
-1033.544810969928
 21
-1122.961989474524
 72
     1
 10
-1033.544810969928
 20
-1122.961989474524
 11
-1033.756291023403
 21
-1123.502950018742
 72
     1
 10
-1033.756291023403
 20
-1123.502950018742
 11
-1034.996795433656
 21
-1123.502950018742
 72
     1
 10
-1034.996795433656
 20
-1123.502950018742
 11
-1033.598842386717
 21
-1120.449140494931
 72
     1
 10
-1033.598842386717
 20
-1120.449140494931
 11
-1032.358337976464
 21
-1120.449140494931
 72
     1
 10
-1032.358337976464
 20
-1120.449140494931
 11
-1030.960384929524
 21
-1123.502950018742
 72
     1
 10
-1030.960384929524
 20
-1123.502950018742
 11
-1032.200889339778
 21
-1123.502950018742
 97
        8
330
1B3
330
1B4
330
16B
330
1B5
330
16A
330
16D
330
1B2
330
16C
 92
       16
 93
        3
 72
     1
 10
-1033.278755418783
 20
-1122.281426209218
 11
-1032.97859018159
 21
-1121.513611243231
 72
     1
 10
-1032.97859018159
 20
-1121.513611243231
 11
-1032.6784249444
 21
-1122.281426209218
 72
     1
 10
-1032.6784249444
 20
-1122.281426209218
 11
-1033.278755418783
 21
-1122.281426209218
 97
        3
330
169
330
1B7
330
1B6
 75
     1
 76
     0
 52
45.0
 41
0.1
 77
     0
 78
     1
 53
45.0
 43
0.0
 44
0.0
 45
-0.0707106781186548
 46
0.0707106781186548
 79
     0
 98
        1
 10
0.0
 20
0.0
  0
HATCH
  5
237
330
71
100
AcDbEntity
  8
1
  6
Continuous
 62
     2
100
AcDbHatch
 10
0.0
 20
0.0
 30
0.0
210
0.0
220
0.0
230
1.0
  2
_USER
 70
     0
 71
     1
 91
        1
 92
        1
 93
        4
 72
     1
 10
-1030.569940925992
 20
-1120.143759542568
 11
-1031.810445336245
 21
-1120.143759542568
 72
     1
 10
-1031.810445336245
 20
-1120.143759542568
 11
-1031.810445336245
 21
-1117.089950018757
 72
     1
 10
-1031.810445336245
 20
-1117.089950018757
 11
-1030.569940925992
 21
-1117.089950018757
 72
     1
 10
-1030.569940925992
 20
-1117.089950018757
 11
-1030.569940925992
 21
-1120.143759542568
 97
        4
330
166
330
168
330
1B8
330
167
 75
     1
 76
     0
 52
45.0
 41
0.1
 77
     0
 78
     1
 53
45.0
 43
0.0
 44
0.0
 45
-0.0707106781186548
 46
0.0707106781186548
 79
     0
 98
        1
 10
0.0
 20
0.0
  0
HATCH
  5
238
330
71
100
AcDbEntity
  8
1
  6
Continuous
 62
     2
100
AcDbHatch
 10
0.0
 20
0.0
 30
0.0
210
0.0
220
0.0
230
1.0
  2
_USER
 70
     0
 71
     1
 91
        1
 92
        1
 93
        4
 72
     1
 10
-1030.569940925992
 20
-1120.143759542568
 11
-1031.810445336245
 21
-1120.143759542568
 72
     1
 10
-1031.810445336245
 20
-1120.143759542568
 11
-1031.810445336245
 21
-1117.089950018757
 72
     1
 10
-1031.810445336245
 20
-1117.089950018757
 11
-1030.569940925992
 21
-1117.089950018757
 72
     1
 10
-1030.569940925992
 20
-1117.089950018757
 11
-1030.569940925992
 21
-1120.143759542568
 97
        4
330
166
330
168
330
1B8
330
167
 75
     1
 76
     0
 52
45.0
 41
0.1
 77
     0
 78
     1
 53
45.0
 43
0.0
 44
0.0
 45
-0.0707106781186548
 46
0.0707106781186548
 79
     0
 98
        1
 10
0.0
 20
0.0
  0
HATCH
  5
239
330
71
100
AcDbEntity
  8
1
  6
Continuous
 62
     2
100
AcDbHatch
 10
0.0
 20
0.0
 30
0.0
210
0.0
220
0.0
230
1.0
  2
_USER
 70
     0
 71
     1
 91
        1
 92
        1
 93
       12
 72
     1
 10
-1026.347454760321
 20
-1117.089950018757
 11
-1027.649984391088
 21
-1118.562900548793
 72
     1
 10
-1027.649984391088
 20
-1118.562900548793
 11
-1026.252031344147
 21
-1120.143759542568
 72
     1
 10
-1026.252031344147
 20
-1120.143759542568
 11
-1027.654755561896
 21
-1120.143759542568
 72
     1
 10
-1027.654755561896
 20
-1120.143759542568
 11
-1028.351346499961
 21
-1119.356027757274
 72
     1
 10
-1028.351346499961
 20
-1119.356027757274
 11
-1029.047937438027
 21
-1120.143759542568
 72
     1
 10
-1029.047937438027
 20
-1120.143759542568
 11
-1030.450661655775
 21
-1120.143759542568
 72
     1
 10
-1030.450661655775
 20
-1120.143759542568
 11
-1029.052708608835
 21
-1118.562900548793
 72
     1
 10
-1029.052708608835
 20
-1118.562900548793
 11
-1030.355238239602
 21
-1117.089950018757
 72
     1
 10
-1030.355238239602
 20
-1117.089950018757
 11
-1028.952514021853
 21
-1117.089950018757
 72
     1
 10
-1028.952514021853
 20
-1117.089950018757
 11
-1028.351346499961
 21
-1117.769773340312
 72
     1
 10
-1028.351346499961
 20
-1117.769773340312
 11
-1027.750178978069
 21
-1117.089950018757
 72
     1
 10
-1027.750178978069
 20
-1117.089950018757
 11
-1026.347454760321
 21
-1117.089950018757
 97
       12
330
161
330
160
330
15F
330
1BC
330
1BD
330
1B9
330
1BA
330
165
330
164
330
163
330
162
330
1BB
 75
     1
 76
     0
 52
45.0
 41
0.1
 77
     0
 78
     1
 53
45.0
 43
0.0
 44
0.0
 45
-0.0707106781186548
 46
0.0707106781186548
 79
     0
 98
        1
 10
0.0
 20
0.0
  0
HATCH
  5
23A
330
71
100
AcDbEntity
  8
1
  6
Continuous
 62
     2
100
AcDbHatch
 10
0.0
 20
0.0
 30
0.0
210
0.0
220
0.0
230
1.0
  2
_USER
 70
     0
 71
     1
 91
        1
 92
        1
 93
       12
 72
     1
 10
-1026.347454760321
 20
-1117.089950018757
 11
-1027.649984391088
 21
-1118.562900548793
 72
     1
 10
-1027.649984391088
 20
-1118.562900548793
 11
-1026.252031344147
 21
-1120.143759542568
 72
     1
 10
-1026.252031344147
 20
-1120.143759542568
 11
-1027.654755561896
 21
-1120.143759542568
 72
     1
 10
-1027.654755561896
 20
-1120.143759542568
 11
-1028.351346499961
 21
-1119.356027757274
 72
     1
 10
-1028.351346499961
 20
-1119.356027757274
 11
-1029.047937438027
 21
-1120.143759542568
 72
     1
 10
-1029.047937438027
 20
-1120.143759542568
 11
-1030.450661655775
 21
-1120.143759542568
 72
     1
 10
-1030.450661655775
 20
-1120.143759542568
 11
-1029.052708608835
 21
-1118.562900548793
 72
     1
 10
-1029.052708608835
 20
-1118.562900548793
 11
-1030.355238239602
 21
-1117.089950018757
 72
     1
 10
-1030.355238239602
 20
-1117.089950018757
 11
-1028.952514021853
 21
-1117.089950018757
 72
     1
 10
-1028.952514021853
 20
-1117.089950018757
 11
-1028.351346499961
 21
-1117.769773340312
 72
     1
 10
-1028.351346499961
 20
-1117.769773340312
 11
-1027.750178978069
 21
-1117.089950018757
 72
     1
 10
-1027.750178978069
 20
-1117.089950018757
 11
-1026.347454760321
 21
-1117.089950018757
 97
       12
330
161
330
160
330
15F
330
1BC
330
1BD
330
1B9
330
1BA
330
165
330
164
330
163
330
162
330
1BB
 75
     1
 76
     0
 52
45.0
 41
0.1
 77
     0
 78
     1
 53
45.0
 43
0.0
 44
0.0
 45
-0.0707106781186548
 46
0.0707106781186548
 79
     0
 98
        1
 10
0.0
 20
0.0
  0
HATCH
  5
23B
330
71
100
AcDbEntity
  8
1
  6
Continuous
 62
     2
100
AcDbHatch
 10
0.0
 20
0.0
 30
0.0
210
0.0
220
0.0
230
1.0
  2
_USER
 70
     0
 71
     1
 91
        2
 92
        1
 93
        6
 72
     1
 10
-1045.365190174467
 20
-1119.200681301424
 11
-1046.123957762248
 21
-1119.200681301424
 72
     1
 10
-1046.123957762248
 20
-1119.200681301424
 11
-1046.123957762248
 21
-1120.143759542568
 72
     1
 10
-1046.123957762248
 20
-1120.143759542568
 11
-1047.364462172502
 21
-1120.143759542568
 72
     1
 10
-1047.364462172502
 20
-1120.143759542568
 11
-1047.364462172502
 21
-1117.089950018757
 72
     1
 10
-1047.364462172502
 20
-1117.089950018757
 11
-1045.365190174467
 21
-1117.089950018757
 72
     2
 10
-1045.365190174467
 20
-1118.145315660091
 40
1.055365641333083
 50
270.0
 51
450.0
 73
     0
 97
        6
330
189
330
188
330
195
330
194
330
18A
330
1DA
 92
       16
 93
        4
 72
     2
 10
-1045.806662700706
 20
-1118.105919688868
 40
0.3528638246709761
 50
270.0
 51
450.0
 73
     1
 72
     1
 10
-1045.806662700706
 20
-1117.753055864197
 11
-1046.123957762248
 21
-1117.753055864197
 72
     1
 10
-1046.123957762248
 20
-1117.753055864197
 11
-1046.123957762248
 21
-1118.458783513539
 72
     1
 10
-1046.123957762248
 20
-1118.458783513539
 11
-1045.806662700706
 21
-1118.458783513539
 97
        4
330
1EE
330
186
330
196
330
187
 75
     1
 76
     0
 52
45.0
 41
0.1
 77
     0
 78
     1
 53
45.0
 43
0.0
 44
0.0
 45
-0.0707106781186548
 46
0.0707106781186548
 79
     0
 98
        1
 10
0.0
 20
0.0
  0
HATCH
  5
23C
330
71
100
AcDbEntity
  8
1
  6
Continuous
 62
     2
100
AcDbHatch
 10
0.0
 20
0.0
 30
0.0
210
0.0
220
0.0
230
1.0
  2
_USER
 70
     0
 71
     1
 91
        2
 92
        1
 93
        6
 72
     1
 10
-1045.365190174467
 20
-1119.200681301424
 11
-1046.123957762248
 21
-1119.200681301424
 72
     1
 10
-1046.123957762248
 20
-1119.200681301424
 11
-1046.123957762248
 21
-1120.143759542568
 72
     1
 10
-1046.123957762248
 20
-1120.143759542568
 11
-1047.364462172502
 21
-1120.143759542568
 72
     1
 10
-1047.364462172502
 20
-1120.143759542568
 11
-1047.364462172502
 21
-1117.089950018757
 72
     1
 10
-1047.364462172502
 20
-1117.089950018757
 11
-1045.365190174467
 21
-1117.089950018757
 72
     2
 10
-1045.365190174467
 20
-1118.145315660091
 40
1.055365641333083
 50
270.0
 51
450.0
 73
     0
 97
        6
330
189
330
188
330
195
330
194
330
18A
330
1DA
 92
       16
 93
        4
 72
     2
 10
-1045.806662700706
 20
-1118.105919688868
 40
0.3528638246709761
 50
270.0
 51
450.0
 73
     1
 72
     1
 10
-1045.806662700706
 20
-1117.753055864197
 11
-1046.123957762248
 21
-1117.753055864197
 72
     1
 10
-1046.123957762248
 20
-1117.753055864197
 11
-1046.123957762248
 21
-1118.458783513539
 72
     1
 10
-1046.123957762248
 20
-1118.458783513539
 11
-1045.806662700706
 21
-1118.458783513539
 97
        4
330
1EE
330
186
330
196
330
187
 75
     1
 76
     0
 52
45.0
 41
0.1
 77
     0
 78
     1
 53
45.0
 43
0.0
 44
0.0
 45
-0.0707106781186548
 46
0.0707106781186548
 79
     0
 98
        1
 10
0.0
 20
0.0
  0
HATCH
  5
23D
330
71
100
AcDbEntity
  8
1
  6
Continuous
 62
     2
100
AcDbHatch
 10
0.0
 20
0.0
 30
0.0
210
0.0
220
0.0
230
1.0
  2
_USER
 70
     0
 71
     1
 91
        2
 92
        1
 93
        4
 72
     2
 10
-1042.808647426108
 20
-1122.51462026714
 40
2.065479772208346
 50
62.45185182429604
 51
117.548148175676
 73
     1
 72
     2
 10
-1043.089587317942
 20
-1121.976045256837
 40
1.458034083650978
 50
117.5481481756553
 51
242.4518518243571
 73
     1
 72
     2
 10
-1042.808647426108
 20
-1121.437470246534
 40
2.065479772208626
 50
242.4518518243356
 51
297.5481481756923
 73
     1
 72
     2
 10
-1042.527707534275
 20
-1121.976045256837
 40
1.458034083652424
 50
297.5481481757063
 51
422.4518518242814
 73
     1
 97
        4
330
1E6
330
1E5
330
1E7
330
1E4
 92
       16
 93
        4
 72
     2
 10
-1043.008387462455
 20
-1121.976045256837
 40
0.7717997786800814
 50
321.8795802028803
 51
398.1204197971329
 73
     1
 72
     2
 10
-1042.808647426108
 20
-1121.819314078717
 40
0.5179085730138424
 50
38.12041979718787
 51
141.8795802027966
 73
     1
 72
     2
 10
-1042.608907389762
 20
-1121.976045256837
 40
0.7717997786795062
 50
141.8795802028254
 51
218.1204197971613
 73
     1
 72
     2
 10
-1042.808647426108
 20
-1122.132776434957
 40
0.5179085730136636
 50
218.1204197972034
 51
321.8795802028121
 73
     1
 97
        4
330
202
330
1FF
330
200
330
201
 75
     1
 76
     0
 52
45.0
 41
0.1
 77
     0
 78
     1
 53
45.0
 43
0.0
 44
0.0
 45
-0.0707106781186548
 46
0.0707106781186548
 79
     0
 98
        1
 10
0.0
 20
0.0
  0
HATCH
  5
23E
330
71
100
AcDbEntity
  8
1
  6
Continuous
 62
     2
100
AcDbHatch
 10
0.0
 20
0.0
 30
0.0
210
0.0
220
0.0
230
1.0
  2
_USER
 70
     0
 71
     1
 91
        2
 92
        1
 93
        4
 72
     2
 10
-1042.808647426108
 20
-1122.51462026714
 40
2.065479772208346
 50
62.45185182429604
 51
117.548148175676
 73
     1
 72
     2
 10
-1043.089587317942
 20
-1121.976045256837
 40
1.458034083650978
 50
117.5481481756553
 51
242.4518518243571
 73
     1
 72
     2
 10
-1042.808647426108
 20
-1121.437470246534
 40
2.065479772208626
 50
242.4518518243356
 51
297.5481481756923
 73
     1
 72
     2
 10
-1042.527707534275
 20
-1121.976045256837
 40
1.458034083652424
 50
297.5481481757063
 51
422.4518518242814
 73
     1
 97
        4
330
1E6
330
1E5
330
1E7
330
1E4
 92
       16
 93
        4
 72
     2
 10
-1043.008387462455
 20
-1121.976045256837
 40
0.7717997786800814
 50
321.8795802028803
 51
398.1204197971329
 73
     1
 72
     2
 10
-1042.808647426108
 20
-1121.819314078717
 40
0.5179085730138424
 50
38.12041979718787
 51
141.8795802027966
 73
     1
 72
     2
 10
-1042.608907389762
 20
-1121.976045256837
 40
0.7717997786795062
 50
141.8795802028254
 51
218.1204197971613
 73
     1
 72
     2
 10
-1042.808647426108
 20
-1122.132776434957
 40
0.5179085730136636
 50
218.1204197972034
 51
321.8795802028121
 73
     1
 97
        4
330
202
330
1FF
330
200
330
201
 75
     1
 76
     0
 52
45.0
 41
0.1
 77
     0
 78
     1
 53
45.0
 43
0.0
 44
0.0
 45
-0.0707106781186548
 46
0.0707106781186548
 79
     0
 98
        1
 10
0.0
 20
0.0
  0
HATCH
  5
23F
330
71
100
AcDbEntity
  8
1
  6
Continuous
 62
     2
100
AcDbHatch
 10
0.0
 20
0.0
 30
0.0
210
0.0
220
0.0
230
1.0
  2
_USER
 70
     0
 71
     1
 91
        2
 92
        1
 93
       12
 72
     1
 10
-1035.913652231699
 20
-1117.7879636242
 11
-1037.249580058126
 21
-1117.7879636242
 72
     1
 10
-1037.249580058126
 20
-1117.7879636242
 11
-1037.249580058126
 21
-1118.267847977942
 72
     1
 10
-1037.249580058126
 20
-1118.267847977942
 11
-1035.913652231699
 21
-1118.267847977942
 72
     1
 10
-1035.913652231699
 20
-1118.267847977942
 11
-1035.913652231699
 21
-1118.965861583384
 72
     1
 10
-1035.913652231699
 20
-1118.965861583384
 11
-1037.249580058126
 21
-1118.965861583384
 72
     1
 10
-1037.249580058126
 20
-1118.965861583384
 11
-1037.249580058126
 21
-1119.445745937126
 72
     1
 10
-1037.249580058126
 20
-1119.445745937126
 11
-1035.913652231699
 21
-1119.445745937126
 72
     1
 10
-1035.913652231699
 20
-1119.445745937126
 11
-1035.913652231699
 21
-1120.143759542568
 72
     1
 10
-1035.913652231699
 20
-1120.143759542568
 11
-1039.06397195548
 21
-1120.143759542568
 72
     2
 10
-1039.06397195548
 20
-1118.616854780663
 40
1.526904761906053
 50
90.0
 51
270.0
 73
     0
 72
     1
 10
-1039.06397195548
 20
-1117.089950018757
 11
-1035.913652231699
 21
-1117.089950018757
 72
     1
 10
-1035.913652231699
 20
-1117.089950018757
 11
-1035.913652231699
 21
-1117.7879636242
 97
       12
330
19D
330
1EF
330
19E
330
19F
330
1A0
330
1A1
330
17E
330
17D
330
17C
330
17B
330
1A2
330
19C
 92
       16
 93
        4
 72
     2
 10
-1038.847699945315
 20
-1118.460123602542
 40
0.5179085730131405
 50
38.12041979708892
 51
141.8795802029111
 73
     1
 72
     2
 10
-1038.647959908969
 20
-1118.616854780663
 40
0.7717997786796852
 50
141.8795802028358
 51
218.1204197971642
 73
     1
 72
     2
 10
-1038.847699945315
 20
-1118.773585958783
 40
0.5179085730138424
 50
218.1204197971879
 51
321.8795802028121
 73
     1
 72
     2
 10
-1039.047439981661
 20
-1118.616854780663
 40
0.7717997786795062
 50
321.8795802028254
 51
398.1204197971746
 73
     1
 97
        4
330
1E9
330
1E8
330
1E3
330
1E2
 75
     1
 76
     0
 52
45.0
 41
0.1
 77
     0
 78
     1
 53
45.0
 43
0.0
 44
0.0
 45
-0.0707106781186548
 46
0.0707106781186548
 79
     0
 98
        1
 10
0.0
 20
0.0
  0
HATCH
  5
240
330
71
100
AcDbEntity
  8
1
  6
Continuous
 62
     2
100
AcDbHatch
 10
0.0
 20
0.0
 30
0.0
210
0.0
220
0.0
230
1.0
  2
_USER
 70
     0
 71
     1
 91
        2
 92
        1
 93
       12
 72
     1
 10
-1035.913652231699
 20
-1117.7879636242
 11
-1037.249580058126
 21
-1117.7879636242
 72
     1
 10
-1037.249580058126
 20
-1117.7879636242
 11
-1037.249580058126
 21
-1118.267847977942
 72
     1
 10
-1037.249580058126
 20
-1118.267847977942
 11
-1035.913652231699
 21
-1118.267847977942
 72
     1
 10
-1035.913652231699
 20
-1118.267847977942
 11
-1035.913652231699
 21
-1118.965861583384
 72
     1
 10
-1035.913652231699
 20
-1118.965861583384
 11
-1037.249580058126
 21
-1118.965861583384
 72
     1
 10
-1037.249580058126
 20
-1118.965861583384
 11
-1037.249580058126
 21
-1119.445745937126
 72
     1
 10
-1037.249580058126
 20
-1119.445745937126
 11
-1035.913652231699
 21
-1119.445745937126
 72
     1
 10
-1035.913652231699
 20
-1119.445745937126
 11
-1035.913652231699
 21
-1120.143759542568
 72
     1
 10
-1035.913652231699
 20
-1120.143759542568
 11
-1039.06397195548
 21
-1120.143759542568
 72
     2
 10
-1039.06397195548
 20
-1118.616854780663
 40
1.526904761906053
 50
90.0
 51
270.0
 73
     0
 72
     1
 10
-1039.06397195548
 20
-1117.089950018757
 11
-1035.913652231699
 21
-1117.089950018757
 72
     1
 10
-1035.913652231699
 20
-1117.089950018757
 11
-1035.913652231699
 21
-1117.7879636242
 97
       12
330
19D
330
1EF
330
19E
330
19F
330
1A0
330
1A1
330
17E
330
17D
330
17C
330
17B
330
1A2
330
19C
 92
       16
 93
        4
 72
     2
 10
-1038.847699945315
 20
-1118.460123602542
 40
0.5179085730131405
 50
38.12041979708892
 51
141.8795802029111
 73
     1
 72
     2
 10
-1038.647959908969
 20
-1118.616854780663
 40
0.7717997786796852
 50
141.8795802028358
 51
218.1204197971642
 73
     1
 72
     2
 10
-1038.847699945315
 20
-1118.773585958783
 40
0.5179085730138424
 50
218.1204197971879
 51
321.8795802028121
 73
     1
 72
     2
 10
-1039.047439981661
 20
-1118.616854780663
 40
0.7717997786795062
 50
321.8795802028254
 51
398.1204197971746
 73
     1
 97
        4
330
1E9
330
1E8
330
1E3
330
1E2
 75
     1
 76
     0
 52
45.0
 41
0.1
 77
     0
 78
     1
 53
45.0
 43
0.0
 44
0.0
 45
-0.0707106781186548
 46
0.0707106781186548
 79
     0
 98
        1
 10
0.0
 20
0.0
  0
HATCH
  5
241
330
71
100
AcDbEntity
  8
1
  6
Continuous
 62
     2
100
AcDbHatch
 10
0.0
 20
0.0
 30
0.0
210
0.0
220
0.0
230
1.0
  2
_USER
 70
     0
 71
     1
 91
        4
 92
        1
 93
        8
 72
     1
 10
-1047.841579253369
 20
-1117.514194634159
 11
-1047.841579253369
 21
-1123.078705403359
 72
     2
 10
-1048.265823868752
 20
-1123.078705403359
 40
0.4242446153830315
 50
0.0
 51
90.0
 73
     0
 72
     1
 10
-1048.265823868752
 20
-1123.502950018742
 11
-1053.739135959469
 21
-1123.502950018742
 72
     2
 10
-1053.739135959469
 20
-1123.078705403359
 40
0.4242446153830315
 50
90.0
 51
180.0
 73
     0
 72
     1
 10
-1054.163380574852
 20
-1123.078705403359
 11
-1054.163380574852
 21
-1117.514194634159
 72
     2
 10
-1053.739135959469
 20
-1117.514194634159
 40
0.424244615383941
 50
180.0
 51
270.0
 73
     0
 72
     1
 10
-1053.739135959469
 20
-1117.089950018775
 11
-1048.265823868752
 21
-1117.089950018775
 72
     2
 10
-1048.265823868752
 20
-1117.514194634159
 40
0.4242446153830315
 50
270.0
 51
360.0
 73
     0
 97
        8
330
191
330
1DF
330
192
330
1EA
330
18F
330
1E1
330
190
330
1E0
 92
       16
 93
        1
 72
     2
 10
-1051.119550308952
 20
-1119.833076862514
 40
0.4709789327789622
 50
0.0
 51
360.0
 73
     1
 97
        1
330
205
 92
       16
 93
        8
 72
     2
 10
-1050.569692596191
 20
-1120.942218462483
 40
0.3157169230768611
 50
115.3740086782608
 51
180.0
 73
     1
 72
     1
 10
-1050.885409519268
 20
-1120.942218462483
 11
-1050.885409519268
 21
-1121.524069869178
 72
     2
 10
-1050.569692596191
 20
-1121.524069869178
 40
0.3157169230769341
 50
180.0
 51
269.8110329575211
 73
     1
 72
     2
 10
-1050.564076460881
 20
-1119.821234921609
 40
2.018561131933151
 50
269.8110329575971
 51
450.1889670424029
 73
     1
 72
     2
 10
-1050.569692596191
 20
-1118.11839997404
 40
0.315716923076013
 50
90.18896704247891
 51
180.0
 73
     1
 72
     1
 10
-1050.885409519268
 20
-1118.11839997404
 11
-1050.885409519268
 21
-1118.723935262547
 72
     2
 10
-1050.569692596191
 20
-1118.723935262547
 40
0.3157169230769341
 50
180.0
 51
244.6259913216508
 73
     1
 72
     2
 10
-1051.095735294279
 20
-1119.833076862514
 40
0.9118481501446578
 50
295.3740086782148
 51
424.6259913218097
 73
     0
 97
        8
330
1F7
330
158
330
1F4
330
1F5
330
1D3
330
157
330
1F6
330
1D2
 92
       16
 93
       12
 72
     2
 10
-1053.145241282723
 20
-1122.474677540109
 40
0.3157169230751151
 50
180.0
 51
270.0
 73
     1
 72
     1
 10
-1053.145241282723
 20
-1122.790394463185
 11
-1051.669408021713
 21
-1122.790394463185
 72
     2
 10
-1051.669408021713
 20
-1122.474677540109
 40
0.3157169230760246
 50
270.0
 51
360.0
 73
     1
 72
     1
 10
-1051.353691098636
 20
-1122.474677540109
 11
-1051.353691098636
 21
-1120.943906608577
 72
     2
 10
-1051.669408021713
 20
-1120.943906608577
 40
0.3157169230769341
 50
0.0
 51
64.80558935154704
 73
     1
 72
     2
 10
-1051.146823574138
 20
-1119.833076862514
 40
0.9118975235573831
 50
115.1944106485443
 51
244.8055893514314
 73
     0
 72
     2
 10
-1051.669408021713
 20
-1118.722247116452
 40
0.3157169230761294
 50
295.1944106484705
 51
360.0
 73
     1
 72
     1
 10
-1051.353691098636
 20
-1118.722247116452
 11
-1051.353691098636
 21
-1118.118222497392
 72
     2
 10
-1051.669408021713
 20
-1118.118222497392
 40
0.3157169230769341
 50
0.0
 51
90.0
 73
     1
 72
     1
 10
-1051.669408021713
 20
-1117.802505574315
 11
-1053.145241282723
 21
-1117.802505574315
 72
     2
 10
-1053.145241282723
 20
-1118.118222497392
 40
0.3157169230769341
 50
90.0
 51
180.0
 73
     1
 72
     1
 10
-1053.460958205798
 20
-1118.118222497392
 11
-1053.460958205798
 21
-1122.474677540109
 97
       12
330
1DB
330
193
330
1DE
330
18E
330
1EB
330
1EC
330
1DD
330
18D
330
1DC
330
18C
330
1ED
330
18B
 75
     1
 76
     0
 52
45.0
 41
0.1
 77
     0
 78
     1
 53
45.0
 43
0.0
 44
0.0
 45
-0.0707106781186548
 46
0.0707106781186548
 79
     0
 98
        1
 10
0.0
 20
0.0
  0
HATCH
  5
242
330
71
100
AcDbEntity
  8
1
  6
Continuous
 62
     2
100
AcDbHatch
 10
0.0
 20
0.0
 30
0.0
210
0.0
220
0.0
230
1.0
  2
_USER
 70
     0
 71
     1
 91
        4
 92
        1
 93
        8
 72
     1
 10
-1047.841579253369
 20
-1117.514194634159
 11
-1047.841579253369
 21
-1123.078705403359
 72
     2
 10
-1048.265823868752
 20
-1123.078705403359
 40
0.4242446153830315
 50
0.0
 51
90.0
 73
     0
 72
     1
 10
-1048.265823868752
 20
-1123.502950018742
 11
-1053.739135959469
 21
-1123.502950018742
 72
     2
 10
-1053.739135959469
 20
-1123.078705403359
 40
0.4242446153830315
 50
90.0
 51
180.0
 73
     0
 72
     1
 10
-1054.163380574852
 20
-1123.078705403359
 11
-1054.163380574852
 21
-1117.514194634159
 72
     2
 10
-1053.739135959469
 20
-1117.514194634159
 40
0.424244615383941
 50
180.0
 51
270.0
 73
     0
 72
     1
 10
-1053.739135959469
 20
-1117.089950018775
 11
-1048.265823868752
 21
-1117.089950018775
 72
     2
 10
-1048.265823868752
 20
-1117.514194634159
 40
0.4242446153830315
 50
270.0
 51
360.0
 73
     0
 97
        8
330
191
330
1DF
330
192
330
1EA
330
18F
330
1E1
330
190
330
1E0
 92
       16
 93
        1
 72
     2
 10
-1051.119550308952
 20
-1119.833076862514
 40
0.4709789327789622
 50
0.0
 51
360.0
 73
     1
 97
        1
330
205
 92
       16
 93
        8
 72
     2
 10
-1050.569692596191
 20
-1120.942218462483
 40
0.3157169230768611
 50
115.3740086782608
 51
180.0
 73
     1
 72
     1
 10
-1050.885409519268
 20
-1120.942218462483
 11
-1050.885409519268
 21
-1121.524069869178
 72
     2
 10
-1050.569692596191
 20
-1121.524069869178
 40
0.3157169230769341
 50
180.0
 51
269.8110329575211
 73
     1
 72
     2
 10
-1050.564076460881
 20
-1119.821234921609
 40
2.018561131933151
 50
269.8110329575971
 51
450.1889670424029
 73
     1
 72
     2
 10
-1050.569692596191
 20
-1118.11839997404
 40
0.315716923076013
 50
90.18896704247891
 51
180.0
 73
     1
 72
     1
 10
-1050.885409519268
 20
-1118.11839997404
 11
-1050.885409519268
 21
-1118.723935262547
 72
     2
 10
-1050.569692596191
 20
-1118.723935262547
 40
0.3157169230769341
 50
180.0
 51
244.6259913216508
 73
     1
 72
     2
 10
-1051.095735294279
 20
-1119.833076862514
 40
0.9118481501446578
 50
295.3740086782148
 51
424.6259913218097
 73
     0
 97
        8
330
1F7
330
158
330
1F4
330
1F5
330
1D3
330
157
330
1F6
330
1D2
 92
       16
 93
       12
 72
     2
 10
-1053.145241282723
 20
-1122.474677540109
 40
0.3157169230751151
 50
180.0
 51
270.0
 73
     1
 72
     1
 10
-1053.145241282723
 20
-1122.790394463185
 11
-1051.669408021713
 21
-1122.790394463185
 72
     2
 10
-1051.669408021713
 20
-1122.474677540109
 40
0.3157169230760246
 50
270.0
 51
360.0
 73
     1
 72
     1
 10
-1051.353691098636
 20
-1122.474677540109
 11
-1051.353691098636
 21
-1120.943906608577
 72
     2
 10
-1051.669408021713
 20
-1120.943906608577
 40
0.3157169230769341
 50
0.0
 51
64.80558935154704
 73
     1
 72
     2
 10
-1051.146823574138
 20
-1119.833076862514
 40
0.9118975235573831
 50
115.1944106485443
 51
244.8055893514314
 73
     0
 72
     2
 10
-1051.669408021713
 20
-1118.722247116452
 40
0.3157169230761294
 50
295.1944106484705
 51
360.0
 73
     1
 72
     1
 10
-1051.353691098636
 20
-1118.722247116452
 11
-1051.353691098636
 21
-1118.118222497392
 72
     2
 10
-1051.669408021713
 20
-1118.118222497392
 40
0.3157169230769341
 50
0.0
 51
90.0
 73
     1
 72
     1
 10
-1051.669408021713
 20
-1117.802505574315
 11
-1053.145241282723
 21
-1117.802505574315
 72
     2
 10
-1053.145241282723
 20
-1118.118222497392
 40
0.3157169230769341
 50
90.0
 51
180.0
 73
     1
 72
     1
 10
-1053.460958205798
 20
-1118.118222497392
 11
-1053.460958205798
 21
-1122.474677540109
 97
       12
330
1DB
330
193
330
1DE
330
18E
330
1EB
330
1EC
330
1DD
330
18D
330
1DC
330
18C
330
1ED
330
18B
 75
     1
 76
     0
 52
45.0
 41
0.1
 77
     0
 78
     1
 53
45.0
 43
0.0
 44
0.0
 45
-0.0707106781186548
 46
0.0707106781186548
 79
     0
 98
        1
 10
0.0
 20
0.0
  0
HATCH
  5
243
330
71
100
AcDbEntity
  8
1
  6
Continuous
 62
     2
100
AcDbHatch
 10
0.0
 20
0.0
 30
0.0
210
0.0
220
0.0
230
1.0
  2
_USER
 70
     0
 71
     1
 91
        1
 92
        1
 93
       18
 72
     1
 10
-1026.252031344147
 20
-1121.234405801055
 11
-1027.063130381621
 21
-1121.234405801055
 72
     1
 10
-1027.063130381621
 20
-1121.234405801055
 11
-1027.063130381621
 21
-1123.502950018742
 72
     1
 10
-1027.063130381621
 20
-1123.502950018742
 11
-1028.255923083789
 21
-1123.502950018742
 72
     1
 10
-1028.255923083789
 20
-1123.502950018742
 11
-1028.255923083789
 21
-1121.234405801055
 72
     1
 10
-1028.255923083789
 20
-1121.234405801055
 11
-1029.359562383357
 21
-1121.234405801055
 72
     2
 10
-1029.359562383357
 20
-1122.188928807881
 40
0.9545230068260935
 50
90.0
 51
109.3371432194156
 73
     1
 72
     2
 10
-1029.50623238146
 20
-1121.770973827498
 40
0.51158006019477
 50
109.3371432195219
 51
151.4785267424876
 73
     1
 72
     2
 10
-1029.128875123379
 20
-1121.976045256837
 40
0.9410597353352762
 50
151.4785267423811
 51
208.5214732576676
 73
     1
 72
     2
 10
-1029.50623238146
 20
-1122.181116686176
 40
0.5115800601966893
 50
208.5214732576243
 51
246.6277221117943
 73
     1
 72
     2
 10
-1029.349792348757
 20
-1121.819124667466
 40
0.9059297849850868
 50
246.6277221118012
 51
288.4480761180602
 73
     1
 72
     2
 10
-1029.767960082419
 20
-1120.565578891429
 40
2.227384008972431
 50
288.4480761181208
 51
301.9309089499367
 73
     1
 72
     1
 10
-1028.589905040395
 20
-1122.455929610579
 11
-1028.589905040395
 21
-1123.328446617382
 72
     2
 10
-1029.925832957512
 20
-1118.663364311581
 40
4.852596863498024
 50
74.02000874165635
 51
84.8418552303638
 73
     0
 72
     2
 10
-1029.636976862776
 20
-1121.863254894802
 40
1.639695123940421
 50
84.8418552303345
 51
164.9381082228985
 73
     0
 72
     2
 10
-1030.056104706238
 20
-1121.976045256837
 40
1.205656168392464
 50
164.9381082229147
 51
195.0618917770957
 73
     0
 72
     2
 10
-1029.636976862776
 20
-1122.088835618872
 40
1.639695123940101
 50
195.0618917771015
 51
270.0
 73
     0
 72
     1
 10
-1029.636976862776
 20
-1120.449140494932
 11
-1026.252031344147
 21
-1120.449140494931
 72
     1
 10
-1026.252031344147
 20
-1120.449140494931
 11
-1026.252031344147
 21
-1121.234405801055
 97
       18
330
15A
330
1F0
330
1F1
330
1D9
330
1D8
330
1BE
330
1D7
330
1D6
330
1F2
330
1D5
330
1F3
330
1D4
330
1BF
330
159
330
15E
330
15D
330
15C
330
15B
 75
     1
 76
     0
 52
45.0
 41
0.1
 77
     0
 78
     1
 53
45.0
 43
0.0
 44
0.0
 45
-0.0707106781186548
 46
0.0707106781186548
 79
     0
 98
        1
 10
0.0
 20
0.0
  0
HATCH
  5
244
330
71
100
AcDbEntity
  8
1
  6
Continuous
 62
     2
100
AcDbHatch
 10
0.0
 20
0.0
 30
0.0
210
0.0
220
0.0
230
1.0
  2
_USER
 70
     0
 71
     1
 91
        1
 92
        1
 93
       18
 72
     1
 10
-1026.252031344147
 20
-1121.234405801055
 11
-1027.063130381621
 21
-1121.234405801055
 72
     1
 10
-1027.063130381621
 20
-1121.234405801055
 11
-1027.063130381621
 21
-1123.502950018742
 72
     1
 10
-1027.063130381621
 20
-1123.502950018742
 11
-1028.255923083789
 21
-1123.502950018742
 72
     1
 10
-1028.255923083789
 20
-1123.502950018742
 11
-1028.255923083789
 21
-1121.234405801055
 72
     1
 10
-1028.255923083789
 20
-1121.234405801055
 11
-1029.359562383357
 21
-1121.234405801055
 72
     2
 10
-1029.359562383357
 20
-1122.188928807881
 40
0.9545230068260935
 50
90.0
 51
109.3371432194156
 73
     1
 72
     2
 10
-1029.50623238146
 20
-1121.770973827498
 40
0.51158006019477
 50
109.3371432195219
 51
151.4785267424876
 73
     1
 72
     2
 10
-1029.128875123379
 20
-1121.976045256837
 40
0.9410597353352762
 50
151.4785267423811
 51
208.5214732576676
 73
     1
 72
     2
 10
-1029.50623238146
 20
-1122.181116686176
 40
0.5115800601966893
 50
208.5214732576243
 51
246.6277221117943
 73
     1
 72
     2
 10
-1029.349792348757
 20
-1121.819124667466
 40
0.9059297849850868
 50
246.6277221118012
 51
288.4480761180602
 73
     1
 72
     2
 10
-1029.767960082419
 20
-1120.565578891429
 40
2.227384008972431
 50
288.4480761181208
 51
301.9309089499367
 73
     1
 72
     1
 10
-1028.589905040395
 20
-1122.455929610579
 11
-1028.589905040395
 21
-1123.328446617382
 72
     2
 10
-1029.925832957512
 20
-1118.663364311581
 40
4.852596863498024
 50
74.02000874165635
 51
84.8418552303638
 73
     0
 72
     2
 10
-1029.636976862776
 20
-1121.863254894802
 40
1.639695123940421
 50
84.8418552303345
 51
164.9381082228985
 73
     0
 72
     2
 10
-1030.056104706238
 20
-1121.976045256837
 40
1.205656168392464
 50
164.9381082229147
 51
195.0618917770957
 73
     0
 72
     2
 10
-1029.636976862776
 20
-1122.088835618872
 40
1.639695123940101
 50
195.0618917771015
 51
270.0
 73
     0
 72
     1
 10
-1029.636976862776
 20
-1120.449140494932
 11
-1026.252031344147
 21
-1120.449140494931
 72
     1
 10
-1026.252031344147
 20
-1120.449140494931
 11
-1026.252031344147
 21
-1121.234405801055
 97
       18
330
15A
330
1F0
330
1F1
330
1D9
330
1D8
330
1BE
330
1D7
330
1D6
330
1F2
330
1D5
330
1F3
330
1D4
330
1BF
330
159
330
15E
330
15D
330
15C
330
15B
 75
     1
 76
     0
 52
45.0
 41
0.1
 77
     0
 78
     1
 53
45.0
 43
0.0
 44
0.0
 45
-0.0707106781186548
 46
0.0707106781186548
 79
     0
 98
        1
 10
0.0
 20
0.0
  0
HATCH
  5
245
330
71
100
AcDbEntity
  8
1
  6
Continuous
 62
     2
100
AcDbHatch
 10
0.0
 20
0.0
 30
0.0
210
0.0
220
0.0
230
1.0
  2
_USER
 70
     0
 71
     1
 91
        1
 92
        1
 93
       14
 72
     2
 10
-1045.739678342029
 20
-1122.088835618872
 40
1.63969512394044
 50
84.84185523036614
 51
164.9381082228882
 73
     1
 72
     2
 10
-1046.158806185492
 20
-1121.976045256837
 40
1.205656168390488
 50
164.938108222879
 51
195.0618917771105
 73
     1
 72
     2
 10
-1045.739678342029
 20
-1121.863254894802
 40
1.639695123939323
 50
195.0618917771118
 51
275.1581447696339
 73
     1
 72
     2
 10
-1046.028534436765
 20
-1118.663364311581
 40
4.852596863497943
 50
275.1581447696255
 51
285.9799912583603
 73
     1
 72
     1
 10
-1044.692606519647
 20
-1123.328446617381
 11
-1044.692606519647
 21
-1122.455929610578
 72
     2
 10
-1045.870661561672
 20
-1120.565578891428
 40
2.227384008973294
 50
58.06909105003847
 51
71.55192388188667
 73
     0
 72
     2
 10
-1045.452493828011
 20
-1121.819124667466
 40
0.905929784984726
 50
71.5519238818853
 51
113.372277888146
 73
     0
 72
     2
 10
-1045.608933860713
 20
-1122.181116686176
 40
0.5115800601943484
 50
113.3722778882057
 51
151.4785267423782
 73
     0
 72
     2
 10
-1045.231576602633
 20
-1121.976045256837
 40
0.941059735333222
 50
151.4785267423073
 51
208.5214732577657
 73
     0
 72
     2
 10
-1045.608933860713
 20
-1121.770973827498
 40
0.5115800601952438
 50
208.5214732577337
 51
246.6277221117943
 73
     0
 72
     2
 10
-1045.452493828011
 20
-1122.132965846209
 40
0.9059297849853586
 50
246.6277221118768
 51
288.4480761180965
 73
     0
 72
     2
 10
-1045.870661561672
 20
-1123.386511622245
 40
2.227384008973766
 50
288.4480761181208
 51
301.9309089499615
 73
     0
 72
     1
 10
-1044.692606519647
 20
-1121.496160903095
 11
-1044.692606519647
 21
-1120.623643896292
 72
     2
 10
-1046.028534436765
 20
-1125.288726202093
 40
4.852596863498252
 50
74.02000874164347
 51
84.8418552303745
 73
     1
 97
       14
330
1F8
330
1F9
330
1FA
330
1FB
330
1C0
330
1D1
330
1D0
330
1CF
330
1FC
330
1FD
330
1CE
330
1FE
330
1C1
330
1CD
 75
     1
 76
     0
 52
45.0
 41
0.1
 77
     0
 78
     1
 53
45.0
 43
0.0
 44
0.0
 45
-0.0707106781186548
 46
0.0707106781186548
 79
     0
 98
        1
 10
0.0
 20
0.0
  0
HATCH
  5
246
330
71
100
AcDbEntity
  8
1
  6
Continuous
 62
     2
100
AcDbHatch
 10
0.0
 20
0.0
 30
0.0
210
0.0
220
0.0
230
1.0
  2
_USER
 70
     0
 71
     1
 91
        1
 92
        1
 93
       14
 72
     2
 10
-1045.739678342029
 20
-1122.088835618872
 40
1.63969512394044
 50
84.84185523036614
 51
164.9381082228882
 73
     1
 72
     2
 10
-1046.158806185492
 20
-1121.976045256837
 40
1.205656168390488
 50
164.938108222879
 51
195.0618917771105
 73
     1
 72
     2
 10
-1045.739678342029
 20
-1121.863254894802
 40
1.639695123939323
 50
195.0618917771118
 51
275.1581447696339
 73
     1
 72
     2
 10
-1046.028534436765
 20
-1118.663364311581
 40
4.852596863497943
 50
275.1581447696255
 51
285.9799912583603
 73
     1
 72
     1
 10
-1044.692606519647
 20
-1123.328446617381
 11
-1044.692606519647
 21
-1122.455929610578
 72
     2
 10
-1045.870661561672
 20
-1120.565578891428
 40
2.227384008973294
 50
58.06909105003847
 51
71.55192388188667
 73
     0
 72
     2
 10
-1045.452493828011
 20
-1121.819124667466
 40
0.905929784984726
 50
71.5519238818853
 51
113.372277888146
 73
     0
 72
     2
 10
-1045.608933860713
 20
-1122.181116686176
 40
0.5115800601943484
 50
113.3722778882057
 51
151.4785267423782
 73
     0
 72
     2
 10
-1045.231576602633
 20
-1121.976045256837
 40
0.941059735333222
 50
151.4785267423073
 51
208.5214732577657
 73
     0
 72
     2
 10
-1045.608933860713
 20
-1121.770973827498
 40
0.5115800601952438
 50
208.5214732577337
 51
246.6277221117943
 73
     0
 72
     2
 10
-1045.452493828011
 20
-1122.132965846209
 40
0.9059297849853586
 50
246.6277221118768
 51
288.4480761180965
 73
     0
 72
     2
 10
-1045.870661561672
 20
-1123.386511622245
 40
2.227384008973766
 50
288.4480761181208
 51
301.9309089499615
 73
     0
 72
     1
 10
-1044.692606519647
 20
-1121.496160903095
 11
-1044.692606519647
 21
-1120.623643896292
 72
     2
 10
-1046.028534436765
 20
-1125.288726202093
 40
4.852596863498252
 50
74.02000874164347
 51
84.8418552303745
 73
     1
 97
       14
330
1F8
330
1F9
330
1FA
330
1FB
330
1C0
330
1D1
330
1D0
330
1CF
330
1FC
330
1FD
330
1CE
330
1FE
330
1C1
330
1CD
 75
     1
 76
     0
 52
45.0
 41
0.1
 77
     0
 78
     1
 53
45.0
 43
0.0
 44
0.0
 45
-0.0707106781186548
 46
0.0707106781186548
 79
     0
 98
        1
 10
0.0
 20
0.0
  0
ENDBLK
  5
73
330
71
100
AcDbEntity
  8
0
100
AcDbBlockEnd
  0
BLOCK
  5
75
330
74
100
AcDbEntity
  8
0
100
AcDbBlockBegin
  2
_punkt
 70
     0
 10
-928.8552309346645
 20
-1130.796450018759
 30
0.0
  3
_punkt
  1

  0
LINE
  5
247
330
74
100
AcDbEntity
  8
1
  6
Continuous
 62
     2
100
AcDbLine
 10
-928.8552309346645
 20
-1130.796450018759
 30
0.0
 11
-923.8552309346655
 21
-1130.796450018759
 31
0.0
  0
LINE
  5
248
330
74
100
AcDbEntity
  8
1
  6
Continuous
 62
     2
100
AcDbLine
 10
-928.8552309346645
 20
-1130.796450018759
 30
0.0
 11
-928.8552309346645
 21
-1135.796450018759
 31
0.0
  0
ENDBLK
  5
76
330
74
100
AcDbEntity
  8
0
100
AcDbBlockEnd
  0
BLOCK
  5
7A
330
77
100
AcDbEntity
  8
0
100
AcDbBlockBegin
  2
A4I_CS
 70
     0
 10
-928.8552309346645
 20
-1135.796450018759
 30
0.0
  3
A4I_CS
  1

  0
INSERT
  5
78
330
77
100
AcDbEntity
  8
1
100
AcDbBlockReference
  2
_rahmen
 10
-928.8552309346645
 20
-1135.796450018759
 30
0.0
  0
INSERT
  5
79
330
77
100
AcDbEntity
  8
1
100
AcDbBlockReference
  2
_punkt
 10
-928.8552309346645
 20
-1130.796450018759
 30
0.0
  0
ENDBLK
  5
7B
330
77
100
AcDbEntity
  8
0
100
AcDbBlockEnd
  0
BLOCK
  5
84
330
7C
100
AcDbEntity
  8
0
100
AcDbBlockBegin
  2
1
 70
     0
 10
0.0
 20
0.0
 30
0.0
  3
1
  1

  0
INSERT
  5
7D
330
7C
100
AcDbEntity
  8
0
100
AcDbBlockReference
  2
Allg1
 10
-1005.9616
 20
-1071.0352
 30
0.0
 41
2.0
 42
2.0
 43
2.0
  0
INSERT
  5
7E
330
7C
100
AcDbEntity
  8
0
100
AcDbBlockReference
  2
Drfsicht1
 10
-1102.189249999999
 20
-1082.478492
 30
0.0
 41
2.0
 42
2.0
 43
2.0
  0
INSERT
  5
7F
330
7C
100
AcDbEntity
  8
0
100
AcDbBlockReference
  2
Rckans1
 10
-979.0
 20
-996.0016
 30
0.0
 41
2.0
 42
2.0
 43
2.0
  0
INSERT
  5
80
330
7C
100
AcDbEntity
  8
0
100
AcDbBlockReference
  2
SA_Links1
 10
-1038.676394
 20
-996.0016
 30
0.0
 41
2.0
 42
2.0
 43
2.0
  0
INSERT
  5
81
330
7C
100
AcDbEntity
  8
0
100
AcDbBlockReference
  2
SA_Rechts1
 10
-1170.63617
 20
-996.0016000000002
 30
0.0
 41
2.0
 42
2.0
 43
2.0
  0
INSERT
  5
82
330
7C
100
AcDbEntity
  8
0
100
AcDbBlockReference
  2
Vordans1
 10
-1102.189248
 20
-996.0016000000002
 30
0.0
 41
2.0
 42
2.0
 43
2.0
  0
INSERT
  5
83
330
7C
100
AcDbEntity
  8
0
100
AcDbBlockReference
  2
A4I_CS
 10
-928.8552309346645
 20
-1135.796450018759
 30
0.0
  0
ENDBLK
  5
85
330
7C
100
AcDbEntity
  8
0
100
AcDbBlockEnd
  0
BLOCK
  5
B7
330
B0
100
AcDbEntity
  8
0
100
AcDbBlockBegin
  2
*D17
 70
     1
 10
0.0
 20
0.0
 30
0.0
  3
*D17
  1

  0
LINE
  5
B1
330
B0
100
AcDbEntity
  8
1
  6
Continuous
 62
     2
100
AcDbLine
 10
-558.1078288830029
 20
-534.480910296755
 30
0.0
 11
-544.1078288830029
 21
-534.480910296755
 31
0.0
  0
LINE
  5
B2
330
B0
100
AcDbEntity
  8
1
  6
Continuous
 62
     2
100
AcDbLine
 10
-558.1078288830029
 20
-537.6514633401046
 30
0.0
 11
-558.1078288830029
 21
-533.730910296755
 31
0.0
  0
LINE
  5
B3
330
B0
100
AcDbEntity
  8
1
  6
Continuous
 62
     2
100
AcDbLine
 10
-544.1078288830029
 20
-537.6514633401046
 30
0.0
 11
-544.1078288830029
 21
-533.730910296755
 31
0.0
  0
SOLID
  5
B4
330
B0
100
AcDbEntity
  8
1
 62
     2
100
AcDbTrace
 10
-556.3578288830029
 20
-534.2505184259771
 30
0.0
 11
-556.3578288830029
 21
-534.711302167533
 31
0.0
 12
-558.1078288830029
 22
-534.480910296755
 32
0.0
 13
-558.1078288830029
 23
-534.480910296755
 33
0.0
  0
SOLID
  5
B5
330
B0
100
AcDbEntity
  8
1
 62
     2
100
AcDbTrace
 10
-545.8578288830029
 20
-534.711302167533
 30
0.0
 11
-545.8578288830029
 21
-534.2505184259771
 31
0.0
 12
-544.1078288830029
 22
-534.480910296755
 32
0.0
 13
-544.1078288830029
 23
-534.480910296755
 33
0.0
  0
MTEXT
  5
B6
330
B0
100
AcDbEntity
  8
1
 62
     3
100
AcDbMText
 10
-552.10923005332
 20
-533.480910296755
 30
0.0
 40
1.75
 41
0.0
 71
     7
 72
     1
  1
14
  7
CONVERTER_11
 11
0.9999999999970619
 21
2.424068405545306E-6
 31
0.0
 73
     1
 44
0.60024009603842
  0
ENDBLK
  5
B8
330
B0
100
AcDbEntity
  8
0
100
AcDbBlockEnd
  0
BLOCK
  5
E9
330
E2
100
AcDbEntity
  8
0
100
AcDbBlockBegin
  2
*D18
 70
     1
 10
0.0
 20
0.0
 30
0.0
  3
*D18
  1

  0
LINE
  5
E3
330
E2
100
AcDbEntity
  8
1
  6
Continuous
 62
     2
100
AcDbLine
 10
-593.76429691273
 20
-503.9974976137428
 30
0.0
 11
-593.76429691273
 21
-511.9974976137428
 31
0.0
  0
LINE
  5
E4
330
E2
100
AcDbEntity
  8
1
  6
Continuous
 62
     2
100
AcDbLine
 10
-588.9303023401045
 20
-503.9974976137428
 30
0.0
 11
-594.51429691273
 21
-503.9974976137428
 31
0.0
  0
LINE
  5
E5
330
E2
100
AcDbEntity
  8
1
  6
Continuous
 62
     2
100
AcDbLine
 10
-588.9303023401045
 20
-511.9974976137428
 30
0.0
 11
-594.51429691273
 21
-511.9974976137428
 31
0.0
  0
SOLID
  5
E6
330
E2
100
AcDbEntity
  8
1
 62
     2
100
AcDbTrace
 10
-593.533905041952
 20
-505.7474976137428
 30
0.0
 11
-593.9946887835079
 21
-505.7474976137428
 31
0.0
 12
-593.76429691273
 22
-503.9974976137428
 32
0.0
 13
-593.76429691273
 23
-503.9974976137428
 33
0.0
  0
SOLID
  5
E7
330
E2
100
AcDbEntity
  8
1
 62
     2
100
AcDbTrace
 10
-593.9946887835079
 20
-510.2474976137428
 30
0.0
 11
-593.533905041952
 21
-510.2474976137428
 31
0.0
 12
-593.76429691273
 22
-511.9974976137428
 32
0.0
 13
-593.76429691273
 23
-511.9974976137428
 33
0.0
  0
MTEXT
  5
E8
330
E2
100
AcDbEntity
  8
1
 62
     3
100
AcDbMText
 10
-594.76429691273
 20
-508.4710391029
 30
0.0
 40
1.75
 41
0.0
 71
     7
 72
     1
  1
8
  7
CONVERTER_11
 11
0.0
 21
1.0
 31
0.0
 73
     1
 44
0.60024009603842
  0
ENDBLK
  5
EA
330
E2
100
AcDbEntity
  8
0
100
AcDbBlockEnd
  0
BLOCK
  5
101
330
FA
100
AcDbEntity
  8
0
100
AcDbBlockBegin
  2
*D19
 70
     1
 10
0.0
 20
0.0
 30
0.0
  3
*D19
  1

  0
LINE
  5
FB
330
FA
100
AcDbEntity
  8
1
  6
Continuous
 62
     2
100
AcDbLine
 10
-564.40510871332
 20
-484.9974976137428
 30
0.0
 11
-564.40510871332
 21
-511.9974976137429
 31
0.0
  0
LINE
  5
FC
330
FA
100
AcDbEntity
  8
1
  6
Continuous
 62
     2
100
AcDbLine
 10
-551.357827883003
 20
-484.9974976137428
 30
0.0
 11
-565.15510871332
 21
-484.9974976137428
 31
0.0
  0
LINE
  5
FD
330
FA
100
AcDbEntity
  8
1
  6
Continuous
 62
     2
100
AcDbLine
 10
-554.7078278830026
 20
-511.9974976137429
 30
0.0
 11
-565.15510871332
 21
-511.9974976137429
 31
0.0
  0
SOLID
  5
FE
330
FA
100
AcDbEntity
  8
1
 62
     2
100
AcDbTrace
 10
-564.1747168425421
 20
-486.7474976137428
 30
0.0
 11
-564.6355005840979
 21
-486.7474976137428
 31
0.0
 12
-564.40510871332
 22
-484.9974976137428
 32
0.0
 13
-564.40510871332
 23
-484.9974976137428
 33
0.0
  0
SOLID
  5
FF
330
FA
100
AcDbEntity
  8
1
 62
     2
100
AcDbTrace
 10
-564.6355005840979
 20
-510.2474976137429
 30
0.0
 11
-564.1747168425421
 21
-510.2474976137429
 31
0.0
 12
-564.40510871332
 22
-511.9974976137429
 32
0.0
 13
-564.40510871332
 23
-511.9974976137429
 33
0.0
  0
MTEXT
  5
100
330
FA
100
AcDbEntity
  8
1
 62
     3
100
AcDbMText
 10
-565.40510871332
 20
-499.3123982922175
 30
0.0
 40
1.75
 41
0.0
 71
     7
 72
     1
  1
27
  7
CONVERTER_11
 11
0.0
 21
1.0
 31
0.0
 73
     1
 44
0.60024009603842
  0
ENDBLK
  5
102
330
FA
100
AcDbEntity
  8
0
100
AcDbBlockEnd
  0
BLOCK
  5
10C
330
105
100
AcDbEntity
  8
0
100
AcDbBlockBegin
  2
*D20
 70
     1
 10
0.0
 20
0.0
 30
0.0
  3
*D20
  1

  0
LINE
  5
106
330
105
100
AcDbEntity
  8
1
  6
Continuous
 62
     2
100
AcDbLine
 10
-554.4578278830026
 20
-519.3623307868745
 30
0.0
 11
-547.7578278830026
 21
-519.3623307868745
 31
0.0
  0
LINE
  5
107
330
105
100
AcDbEntity
  8
1
  6
Continuous
 62
     2
100
AcDbLine
 10
-554.4578278830026
 20
-512.2474976137429
 30
0.0
 11
-554.4578278830026
 21
-520.1123307868745
 31
0.0
  0
LINE
  5
108
330
105
100
AcDbEntity
  8
1
  6
Continuous
 62
     2
100
AcDbLine
 10
-547.7578278830026
 20
-512.2474976137428
 30
0.0
 11
-547.7578278830026
 21
-520.1123307868745
 31
0.0
  0
SOLID
  5
109
330
105
100
AcDbEntity
  8
1
 62
     2
100
AcDbTrace
 10
-552.7078278830026
 20
-519.1319389160966
 30
0.0
 11
-552.7078278830026
 21
-519.5927226576524
 31
0.0
 12
-554.4578278830026
 22
-519.3623307868745
 32
0.0
 13
-554.4578278830026
 23
-519.3623307868745
 33
0.0
  0
SOLID
  5
10A
330
105
100
AcDbEntity
  8
1
 62
     2
100
AcDbTrace
 10
-549.5078278830026
 20
-519.5927226576524
 30
0.0
 11
-549.5078278830026
 21
-519.1319389160966
 31
0.0
 12
-547.7578278830026
 22
-519.3623307868745
 32
0.0
 13
-547.7578278830026
 23
-519.3623307868745
 33
0.0
  0
MTEXT
  5
10B
330
105
100
AcDbEntity
  8
1
 62
     3
100
AcDbMText
 10
-554.3860875615966
 20
-518.1873377439509
 30
0.0
 40
1.75
 41
0.0
 71
     7
 72
     1
  1
\C3; {\Fgdt;n}\C3;6,7
  7
CONVERTER_11
 11
0.9999999999970619
 21
2.424068405545306E-6
 31
0.0
 73
     1
 44
0.60024009603842
  0
ENDBLK
  5
10D
330
105
100
AcDbEntity
  8
0
100
AcDbBlockEnd
  0
ENDSEC
  0
SECTION
  2
ENTITIES
  0
INSERT
  5
86
330
1F
100
AcDbEntity
  8
1
100
AcDbBlockReference
  2
1
 10
0.0
 20
0.0
 30
0.0
  0
ENDSEC
  0
SECTION
  2
OBJECTS
  0
DICTIONARY
  5
C
330
0
100
AcDbDictionary
281
     1
  3
ACAD_GROUP
350
D
  3
ACAD_LAYOUT
350
1A
  3
ACAD_MATERIAL
350
3B
  3
ACAD_MLEADERSTYLE
350
270
  3
ACAD_MLINESTYLE
350
17
  3
ACAD_PLOTSETTINGS
350
19
  3
ACAD_PLOTSTYLENAME
350
E
  3
ACAD_TABLESTYLE
350
26F
  3
ACAD_VISUALSTYLE
350
2A
  0
DICTIONARY
  5
D
102
{ACAD_REACTORS
330
C
102
}
330
C
100
AcDbDictionary
281
     1
  0
DICTIONARY
  5
1A
102
{ACAD_REACTORS
330
C
102
}
330
C
100
AcDbDictionary
281
     1
  3
Layout1
350
1E
  3
Layout2
350
26
  3
Model
350
22
  0
DICTIONARY
  5
3B
102
{ACAD_REACTORS
330
C
102
}
330
C
100
AcDbDictionary
281
     1
  3
ByBlock
350
3D
  3
ByLayer
350
3C
  3
Global
350
3E
  0
DICTIONARY
  5
270
102
{ACAD_REACTORS
330
C
102
}
330
C
100
AcDbDictionary
281
     1
  0
DICTIONARY
  5
17
102
{ACAD_REACTORS
330
C
102
}
330
C
100
AcDbDictionary
281
     1
  3
Standard
350
18
  0
DICTIONARY
  5
19
102
{ACAD_REACTORS
330
C
102
}
330
C
100
AcDbDictionary
281
     1
  0
ACDBDICTIONARYWDFLT
  5
E
102
{ACAD_REACTORS
330
C
102
}
330
C
100
AcDbDictionary
281
     1
  3
Normal
350
F
100
AcDbDictionaryWithDefault
340
F
  0
DICTIONARY
  5
26F
102
{ACAD_REACTORS
330
C
102
}
330
C
100
AcDbDictionary
281
     1
  0
DICTIONARY
  5
2A
102
{ACAD_REACTORS
330
C
102
}
330
C
100
AcDbDictionary
281
     1
  3
2dWireframe
350
2F
  3
3D Hidden
350
31
  3
3dWireframe
350
30
  3
Basic
350
32
  3
Brighten
350
36
  3
ColorChange
350
3A
  3
Conceptual
350
34
  3
Dim
350
35
  3
Facepattern
350
39
  3
Flat
350
2B
  3
FlatWithEdges
350
2C
  3
Gouraud
350
2D
  3
GouraudWithEdges
350
2E
  3
Linepattern
350
38
  3
Realistic
350
33
  3
Thicken
350
37
  0
LAYOUT
  5
1E
102
{ACAD_REACTORS
330
1A
102
}
330
1A
100
AcDbPlotSettings
  1

  2
none_device
  4

  6

 40
0.0
 41
0.0
 42
0.0
 43
0.0
 44
0.0
 45
0.0
 46
0.0
 47
0.0
 48
0.0
 49
0.0
140
0.0
141
0.0
142
1.0
143
1.0
 70
   688
 72
     0
 73
     0
 74
     5
  7

 75
    16
 76
     0
 77
     2
 78
   300
147
1.0
148
0.0
149
0.0
100
AcDbLayout
  1
Layout1
 70
     1
 71
     1
 10
0.0
 20
0.0
 11
12.0
 21
9.0
 12
0.0
 22
0.0
 32
0.0
 14
1.00000000000000E+20
 24
1.00000000000000E+20
 34
1.00000000000000E+20
 15
-1.00000000000000E+20
 25
-1.00000000000000E+20
 35
-1.00000000000000E+20
146
0.0
 13
0.0
 23
0.0
 33
0.0
 16
1.0
 26
0.0
 36
0.0
 17
0.0
 27
1.0
 37
0.0
 76
     0
330
1B
  0
LAYOUT
  5
26
102
{ACAD_REACTORS
330
1A
102
}
330
1A
100
AcDbPlotSettings
  1

  2
none_device
  4

  6

 40
0.0
 41
0.0
 42
0.0
 43
0.0
 44
0.0
 45
0.0
 46
0.0
 47
0.0
 48
0.0
 49
0.0
140
0.0
141
0.0
142
1.0
143
1.0
 70
   688
 72
     0
 73
     0
 74
     5
  7

 75
    16
 76
     0
 77
     2
 78
   300
147
1.0
148
0.0
149
0.0
100
AcDbLayout
  1
Layout2
 70
     1
 71
     2
 10
0.0
 20
0.0
 11
0.0
 21
0.0
 12
0.0
 22
0.0
 32
0.0
 14
0.0
 24
0.0
 34
0.0
 15
0.0
 25
0.0
 35
0.0
146
0.0
 13
0.0
 23
0.0
 33
0.0
 16
1.0
 26
0.0
 36
0.0
 17
0.0
 27
1.0
 37
0.0
 76
     0
330
23
  0
LAYOUT
  5
22
102
{ACAD_REACTORS
330
1A
102
}
330
1A
100
AcDbPlotSettings
  1

  2
none_device
  4

  6

 40
0.0
 41
0.0
 42
0.0
 43
0.0
 44
0.0
 45
0.0
 46
0.0
 47
0.0
 48
0.0
 49
0.0
140
0.0
141
0.0
142
1.0
143
1.0
 70
  1712
 72
     0
 73
     0
 74
     0
  7

 75
     0
 76
     0
 77
     2
 78
   300
147
1.0
148
0.0
149
0.0
100
AcDbLayout
  1
Model
 70
     1
 71
     0
 10
0.0
 20
0.0
 11
12.0
 21
9.0
 12
0.0
 22
0.0
 32
0.0
 14
-1220.855230934664
 24
-1135.796450018759
 34
0.0
 15
-923.8552309346655
 25
-925.7964500187586
 35
0.0
146
0.0
 13
0.0
 23
0.0
 33
0.0
 16
1.0
 26
0.0
 36
0.0
 17
0.0
 27
1.0
 37
0.0
 76
     0
330
1F
331
29
  0
MATERIAL
  5
3D
102
{ACAD_REACTORS
330
3B
102
}
102
{ACAD_XDICTIONARY
360
26B
102
}
330
3B
100
AcDbMaterial
  1
ByBlock
  0
MATERIAL
  5
3C
102
{ACAD_REACTORS
330
3B
102
}
102
{ACAD_XDICTIONARY
360
269
102
}
330
3B
100
AcDbMaterial
  1
ByLayer
  0
MATERIAL
  5
3E
102
{ACAD_REACTORS
330
3B
102
}
102
{ACAD_XDICTIONARY
360
26D
102
}
330
3B
100
AcDbMaterial
  1
Global
  0
MLINESTYLE
  5
18
102
{ACAD_REACTORS
330
17
102
}
330
17
100
AcDbMlineStyle
  2
Standard
 70
     0
  3

 62
   256
 51
90.0
 52
90.0
 71
     2
 49
0.5
 62
   256
  6
BYLAYER
 49
-0.5
 62
   256
  6
BYLAYER
  0
ACDBPLACEHOLDER
  5
F
102
{ACAD_REACTORS
330
E
102
}
330
E
  0
VISUALSTYLE
  5
2F
102
{ACAD_REACTORS
330
2A
102
}
102
{ACAD_XDICTIONARY
360
251
102
}
330
2A
100
AcDbVisualStyle
  2
2dWireframe
 70
     4
 71
     0
 72
     2
 73
     0
 90
        0
 40
-0.6
 41
-30.0
 62
     5
 63
     7
421
 16777215
 74
     1
 91
        4
 64
     7
 65
   257
 75
     1
175
     1
 42
1.0
 92
        0
 66
   257
 43
1.0
 76
     1
 77
     6
 78
     2
 67
     7
 79
     5
170
     0
171
     0
290
     0
174
     0
 93
        1
 44
0.0
173
     0
291
     0
 45
0.0
1001
ACAD
1000
AcDbSavedByObjectVersion
1070
     0
  0
VISUALSTYLE
  5
31
102
{ACAD_REACTORS
330
2A
102
}
102
{ACAD_XDICTIONARY
360
255
102
}
330
2A
100
AcDbVisualStyle
  2
3D Hidden
 70
     6
 71
     1
 72
     2
 73
     2
 90
        0
 40
-0.6
 41
-30.0
 62
     5
 63
     7
421
 16777215
 74
     2
 91
        2
 64
     7
 65
   257
 75
     2
175
     1
 42
40.0
 92
        0
 66
   257
 43
1.0
 76
     1
 77
     6
 78
     2
 67
     7
 79
     3
170
     0
171
     0
290
     0
174
     0
 93
        1
 44
0.0
173
     0
291
     0
 45
0.0
1001
ACAD
1000
AcDbSavedByObjectVersion
1070
     0
  0
VISUALSTYLE
  5
30
102
{ACAD_REACTORS
330
2A
102
}
102
{ACAD_XDICTIONARY
360
253
102
}
330
2A
100
AcDbVisualStyle
  2
3dWireframe
 70
     5
 71
     0
 72
     2
 73
     0
 90
        0
 40
-0.6
 41
-30.0
 62
     5
 63
     7
421
 16777215
 74
     1
 91
        4
 64
     7
 65
   257
 75
     1
175
     1
 42
1.0
 92
        0
 66
   257
 43
1.0
 76
     1
 77
     6
 78
     2
 67
     7
 79
     5
170
     0
171
     0
290
     0
174
     0
 93
        1
 44
0.0
173
     0
291
     0
 45
0.0
1001
ACAD
1000
AcDbSavedByObjectVersion
1070
     0
  0
VISUALSTYLE
  5
32
102
{ACAD_REACTORS
330
2A
102
}
102
{ACAD_XDICTIONARY
360
257
102
}
330
2A
100
AcDbVisualStyle
  2
Basic
 70
     7
 71
     1
 72
     0
 73
     1
 90
        0
 40
-0.6
 41
-30.0
 62
     5
 63
     7
421
 16777215
 74
     0
 91
        4
 64
     7
 65
   257
 75
     1
175
     1
 42
1.0
 92
        8
 66
     7
 43
1.0
 76
     1
 77
     6
 78
     2
 67
     7
 79
     5
170
     0
171
     0
290
     0
174
     0
 93
        1
 44
0.0
173
     0
291
     1
 45
0.0
1001
ACAD
1000
AcDbSavedByObjectVersion
1070
     0
  0
VISUALSTYLE
  5
36
102
{ACAD_REACTORS
330
2A
102
}
102
{ACAD_XDICTIONARY
360
25F
102
}
330
2A
100
AcDbVisualStyle
  2
Brighten
 70
    12
 71
     2
 72
     2
 73
     0
 90
        0
 40
-0.6
 41
-30.0
 62
     5
 63
     7
421
 16777215
 74
     1
 91
        4
 64
     7
 65
   257
 75
     1
175
     1
 42
1.0
 92
        8
 66
     7
 43
1.0
 76
     1
 77
     6
 78
     2
 67
     7
 79
     5
170
     0
171
     0
290
     0
174
     0
 93
        1
 44
50.0
173
     0
291
     1
 45
0.0
1001
ACAD
1000
AcDbSavedByObjectVersion
1070
     0
  0
VISUALSTYLE
  5
3A
102
{ACAD_REACTORS
330
2A
102
}
102
{ACAD_XDICTIONARY
360
267
102
}
330
2A
100
AcDbVisualStyle
  2
ColorChange
 70
    16
 71
     2
 72
     2
 73
     3
 90
        0
 40
-0.6
 41
-30.0
 62
     5
 63
     8
421
  8421504
 74
     1
 91
        4
 64
     7
 65
   257
 75
     1
175
     1
 42
1.0
 92
        8
 66
     8
424
  8421504
 43
1.0
 76
     1
 77
     6
 78
     2
 67
     7
 79
     5
170
     0
171
     0
290
     0
174
     0
 93
        1
 44
0.0
173
     0
291
     1
 45
0.0
1001
ACAD
1000
AcDbSavedByObjectVersion
1070
     0
  0
VISUALSTYLE
  5
34
102
{ACAD_REACTORS
330
2A
102
}
102
{ACAD_XDICTIONARY
360
25B
102
}
330
2A
100
AcDbVisualStyle
  2
Conceptual
 70
     9
 71
     3
 72
     2
 73
     0
 90
        0
 40
-0.6
 41
-30.0
 62
     5
 63
     7
421
 16777215
 74
     2
 91
        2
 64
     7
 65
   257
 75
     1
175
     1
 42
40.0
 92
        8
 66
     7
 43
1.0
 76
     1
 77
     6
 78
     2
 67
     7
 79
     3
170
     0
171
     0
290
     0
174
     0
 93
        1
 44
0.0
173
     0
291
     0
 45
0.0
1001
ACAD
1000
AcDbSavedByObjectVersion
1070
     0
  0
VISUALSTYLE
  5
35
102
{ACAD_REACTORS
330
2A
102
}
102
{ACAD_XDICTIONARY
360
25D
102
}
330
2A
100
AcDbVisualStyle
  2
Dim
 70
    11
 71
     2
 72
     2
 73
     0
 90
        0
 40
-0.6
 41
-30.0
 62
     5
 63
     7
421
 16777215
 74
     1
 91
        4
 64
     7
 65
   257
 75
     1
175
     1
 42
1.0
 92
        8
 66
     7
 43
1.0
 76
     1
 77
     6
 78
     2
 67
     7
 79
     5
170
     0
171
     0
290
     0
174
     0
 93
        1
 44
-50.0
173
     0
291
     1
 45
0.0
1001
ACAD
1000
AcDbSavedByObjectVersion
1070
     0
  0
VISUALSTYLE
  5
39
102
{ACAD_REACTORS
330
2A
102
}
102
{ACAD_XDICTIONARY
360
265
102
}
330
2A
100
AcDbVisualStyle
  2
Facepattern
 70
    15
 71
     2
 72
     2
 73
     0
 90
        0
 40
-0.6
 41
-30.0
 62
     5
 63
     7
421
 16777215
 74
     1
 91
        4
 64
     7
 65
   257
 75
     1
175
     1
 42
1.0
 92
        8
 66
     7
 43
1.0
 76
     1
 77
     6
 78
     2
 67
     7
 79
     5
170
     0
171
     0
290
     0
174
     0
 93
        1
 44
0.0
173
     0
291
     1
 45
0.0
1001
ACAD
1000
AcDbSavedByObjectVersion
1070
     0
  0
VISUALSTYLE
  5
2B
102
{ACAD_REACTORS
330
2A
102
}
102
{ACAD_XDICTIONARY
360
249
102
}
330
2A
100
AcDbVisualStyle
  2
Flat
 70
     0
 71
     2
 72
     1
 73
     1
 90
        2
 40
-0.6
 41
30.0
 62
     5
 63
     7
421
 16777215
 74
     0
 91
        4
 64
     7
 65
   257
 75
     1
175
     1
 42
1.0
 92
        8
 66
     7
 43
1.0
 76
     1
 77
     6
 78
     2
 67
     7
 79
     5
170
     0
171
     0
290
     0
174
     0
 93
       13
 44
0.0
173
     0
291
     1
 45
0.0
1001
ACAD
1000
AcDbSavedByObjectVersion
1070
     0
  0
VISUALSTYLE
  5
2C
102
{ACAD_REACTORS
330
2A
102
}
102
{ACAD_XDICTIONARY
360
24B
102
}
330
2A
100
AcDbVisualStyle
  2
FlatWithEdges
 70
     1
 71
     2
 72
     1
 73
     1
 90
        2
 40
-0.6
 41
30.0
 62
     5
 63
     7
421
 16777215
 74
     1
 91
        4
 64
     7
 65
   257
 75
     1
175
     1
 42
1.0
 92
        0
 66
   257
 43
1.0
 76
     1
 77
     6
 78
     2
 67
     7
 79
     5
170
     0
171
     0
290
     0
174
     0
 93
       13
 44
0.0
173
     0
291
     1
 45
0.0
1001
ACAD
1000
AcDbSavedByObjectVersion
1070
     0
  0
VISUALSTYLE
  5
2D
102
{ACAD_REACTORS
330
2A
102
}
102
{ACAD_XDICTIONARY
360
24D
102
}
330
2A
100
AcDbVisualStyle
  2
Gouraud
 70
     2
 71
     2
 72
     2
 73
     1
 90
        2
 40
-0.6
 41
30.0
 62
     5
 63
     7
421
 16777215
 74
     0
 91
        4
 64
     7
 65
   257
 75
     1
175
     1
 42
1.0
 92
        0
 66
     7
 43
1.0
 76
     1
 77
     6
 78
     2
 67
     7
 79
     5
170
     0
171
     0
290
     0
174
     0
 93
       13
 44
0.0
173
     0
291
     1
 45
0.0
1001
ACAD
1000
AcDbSavedByObjectVersion
1070
     0
  0
VISUALSTYLE
  5
2E
102
{ACAD_REACTORS
330
2A
102
}
102
{ACAD_XDICTIONARY
360
24F
102
}
330
2A
100
AcDbVisualStyle
  2
GouraudWithEdges
 70
     3
 71
     2
 72
     2
 73
     1
 90
        2
 40
-0.6
 41
30.0
 62
     5
 63
     7
421
 16777215
 74
     1
 91
        4
 64
     7
 65
   257
 75
     1
175
     1
 42
1.0
 92
        0
 66
   257
 43
1.0
 76
     1
 77
     6
 78
     2
 67
     7
 79
     5
170
     0
171
     0
290
     0
174
     0
 93
       13
 44
0.0
173
     0
291
     1
 45
0.0
1001
ACAD
1000
AcDbSavedByObjectVersion
1070
     0
  0
VISUALSTYLE
  5
38
102
{ACAD_REACTORS
330
2A
102
}
102
{ACAD_XDICTIONARY
360
263
102
}
330
2A
100
AcDbVisualStyle
  2
Linepattern
 70
    14
 71
     2
 72
     2
 73
     0
 90
        0
 40
-0.6
 41
-30.0
 62
     5
 63
     7
421
 16777215
 74
     1
 91
        4
 64
     7
 65
   257
 75
     7
175
     7
 42
1.0
 92
        8
 66
     7
 43
1.0
 76
     1
 77
     6
 78
     2
 67
     7
 79
     5
170
     0
171
     0
290
     0
174
     0
 93
        1
 44
0.0
173
     0
291
     1
 45
0.0
1001
ACAD
1000
AcDbSavedByObjectVersion
1070
     0
  0
VISUALSTYLE
  5
33
102
{ACAD_REACTORS
330
2A
102
}
102
{ACAD_XDICTIONARY
360
259
102
}
330
2A
100
AcDbVisualStyle
  2
Realistic
 70
     8
 71
     2
 72
     2
 73
     0
 90
        0
 40
-0.6
 41
-30.0
 62
     5
 63
     7
421
 16777215
 74
     1
 91
        0
 64
     7
 65
   257
 75
     1
175
     1
 42
1.0
 92
        8
 66
     8
424
  7895160
 43
1.0
 76
     1
 77
     6
 78
     2
 67
     7
 79
     5
170
     0
171
     0
290
     0
174
     0
 93
       13
 44
0.0
173
     0
291
     0
 45
0.0
1001
ACAD
1000
AcDbSavedByObjectVersion
1070
     0
  0
VISUALSTYLE
  5
37
102
{ACAD_REACTORS
330
2A
102
}
102
{ACAD_XDICTIONARY
360
261
102
}
330
2A
100
AcDbVisualStyle
  2
Thicken
 70
    13
 71
     2
 72
     2
 73
     0
 90
        0
 40
-0.6
 41
-30.0
 62
     5
 63
     7
421
 16777215
 74
     1
 91
        4
 64
     7
 65
   257
 75
     1
175
     1
 42
1.0
 92
       12
 66
     7
 43
1.0
 76
     1
 77
     6
 78
     2
 67
     7
 79
     5
170
     0
171
     0
290
     0
174
     0
 93
        1
 44
0.0
173
     0
291
     1
 45
0.0
1001
ACAD
1000
AcDbSavedByObjectVersion
1070
     0
  0
DICTIONARY
  5
26B
330
3D
100
AcDbDictionary
280
     1
281
     1
  3
ACAD_XREC_ROUNDTRIP
360
26C
  0
DICTIONARY
  5
269
330
3C
100
AcDbDictionary
280
     1
281
     1
  3
ACAD_XREC_ROUNDTRIP
360
26A
  0
DICTIONARY
  5
26D
330
3E
100
AcDbDictionary
280
     1
281
     1
  3
ACAD_XREC_ROUNDTRIP
360
26E
  0
DICTIONARY
  5
251
330
2F
100
AcDbDictionary
280
     1
281
     1
  3
ACAD_XREC_ROUNDTRIP
360
252
  0
DICTIONARY
  5
255
330
31
100
AcDbDictionary
280
     1
281
     1
  3
ACAD_XREC_ROUNDTRIP
360
256
  0
DICTIONARY
  5
253
330
30
100
AcDbDictionary
280
     1
281
     1
  3
ACAD_XREC_ROUNDTRIP
360
254
  0
DICTIONARY
  5
257
330
32
100
AcDbDictionary
280
     1
281
     1
  3
ACAD_XREC_ROUNDTRIP
360
258
  0
DICTIONARY
  5
25F
330
36
100
AcDbDictionary
280
     1
281
     1
  3
ACAD_XREC_ROUNDTRIP
360
260
  0
DICTIONARY
  5
267
330
3A
100
AcDbDictionary
280
     1
281
     1
  3
ACAD_XREC_ROUNDTRIP
360
268
  0
DICTIONARY
  5
25B
330
34
100
AcDbDictionary
280
     1
281
     1
  3
ACAD_XREC_ROUNDTRIP
360
25C
  0
DICTIONARY
  5
25D
330
35
100
AcDbDictionary
280
     1
281
     1
  3
ACAD_XREC_ROUNDTRIP
360
25E
  0
DICTIONARY
  5
265
330
39
100
AcDbDictionary
280
     1
281
     1
  3
ACAD_XREC_ROUNDTRIP
360
266
  0
DICTIONARY
  5
249
330
2B
100
AcDbDictionary
280
     1
281
     1
  3
ACAD_XREC_ROUNDTRIP
360
24A
  0
DICTIONARY
  5
24B
330
2C
100
AcDbDictionary
280
     1
281
     1
  3
ACAD_XREC_ROUNDTRIP
360
24C
  0
DICTIONARY
  5
24D
330
2D
100
AcDbDictionary
280
     1
281
     1
  3
ACAD_XREC_ROUNDTRIP
360
24E
  0
DICTIONARY
  5
24F
330
2E
100
AcDbDictionary
280
     1
281
     1
  3
ACAD_XREC_ROUNDTRIP
360
250
  0
DICTIONARY
  5
263
330
38
100
AcDbDictionary
280
     1
281
     1
  3
ACAD_XREC_ROUNDTRIP
360
264
  0
DICTIONARY
  5
259
330
33
100
AcDbDictionary
280
     1
281
     1
  3
ACAD_XREC_ROUNDTRIP
360
25A
  0
DICTIONARY
  5
261
330
37
100
AcDbDictionary
280
     1
281
     1
  3
ACAD_XREC_ROUNDTRIP
360
262
  0
XRECORD
  5
26C
102
{ACAD_REACTORS
330
26B
102
}
330
26B
100
AcDbXrecord
280
     1
102
MATERIAL
148
0.0
149
0.0
149
0.0
 93
        0
 94
      127
282
     0
 72
     1
 77
     1
171
     1
175
     1
179
     1
273
     0
  0
XRECORD
  5
26A
102
{ACAD_REACTORS
330
269
102
}
330
269
100
AcDbXrecord
280
     1
102
MATERIAL
148
0.0
149
0.0
149
0.0
 93
        0
 94
      127
282
     0
 72
     1
 77
     1
171
     1
175
     1
179
     1
273
     0
  0
XRECORD
  5
26E
102
{ACAD_REACTORS
330
26D
102
}
330
26D
100
AcDbXrecord
280
     1
102
MATERIAL
148
0.0
149
0.0
149
0.0
 93
        0
 94
      127
282
     0
 72
     1
 77
     1
171
     1
175
     1
179
     1
273
     0
  0
XRECORD
  5
252
102
{ACAD_REACTORS
330
251
102
}
330
251
100
AcDbXrecord
280
     1
102
RTVSPropertyOp0
 70
     1
102
RTVSPropertyOp1
 70
     1
102
RTVSPropertyOp2
 70
     1
102
RTVSPropertyOp3
 70
     1
102
RTVSPropertyOp4
 70
     1
102
RTVSPropertyOp5
 70
     1
102
RTVSPropertyOp6
 70
     1
102
RTVSPropertyOp7
 70
     1
102
RTVSPropertyOp8
 70
     1
102
RTVSPropertyOp9
 70
     1
102
RTVSPropertyOp10
 70
     1
102
RTVSPropertyOp11
 70
     1
102
RTVSPropertyOp12
 70
     1
102
RTVSPropertyOp13
 70
     1
102
RTVSPropertyOp14
 70
     1
102
RTVSPropertyOp15
 70
     1
102
RTVSPropertyOp16
 70
     1
102
RTVSPropertyOp17
 70
     1
102
RTVSPropertyOp18
 70
     1
102
RTVSPropertyOp19
 70
     1
102
RTVSPropertyOp20
 70
     1
102
RTVSPropertyOp21
 70
     1
102
RTVSPropertyOp22
 70
     1
102
RTVSPropertyOp23
 70
     1
102
RTVSPropertyOp24
 70
     1
102
RTVSPropertyOp25
 70
     1
102
RTVSPropertyOp26
 70
     1
102
RTVSPropertyOp27
 70
     1
102
RTVSPropertyOp28
 70
     1
102
RTVSPropertyOp29
 70
     1
102
RTVSPropertyOp30
 70
     1
102
RTVSPropertyOp31
 70
     1
102
RTVSPropertyOp32
 70
     1
  0
XRECORD
  5
256
102
{ACAD_REACTORS
330
255
102
}
330
255
100
AcDbXrecord
280
     1
102
RTVSPropertyOp0
 70
     1
102
RTVSPropertyOp1
 70
     1
102
RTVSPropertyOp2
 70
     1
102
RTVSPropertyOp3
 70
     1
102
RTVSPropertyOp4
 70
     1
102
RTVSPropertyOp5
 70
     1
102
RTVSPropertyOp6
 70
     1
102
RTVSPropertyOp7
 70
     1
102
RTVSPropertyOp8
 70
     1
102
RTVSPropertyOp9
 70
     1
102
RTVSPropertyOp10
 70
     1
102
RTVSPropertyOp11
 70
     1
102
RTVSPropertyOp12
 70
     1
102
RTVSPropertyOp13
 70
     1
102
RTVSPropertyOp14
 70
     1
102
RTVSPropertyOp15
 70
     1
102
RTVSPropertyOp16
 70
     1
102
RTVSPropertyOp17
 70
     1
102
RTVSPropertyOp18
 70
     1
102
RTVSPropertyOp19
 70
     1
102
RTVSPropertyOp20
 70
     1
102
RTVSPropertyOp21
 70
     1
102
RTVSPropertyOp22
 70
     1
102
RTVSPropertyOp23
 70
     1
102
RTVSPropertyOp24
 70
     1
102
RTVSPropertyOp25
 70
     1
102
RTVSPropertyOp26
 70
     1
102
RTVSPropertyOp27
 70
     1
102
RTVSPropertyOp28
 70
     1
102
RTVSPropertyOp29
 70
     1
102
RTVSPropertyOp30
 70
     1
102
RTVSPropertyOp31
 70
     1
102
RTVSPropertyOp32
 70
     1
  0
XRECORD
  5
254
102
{ACAD_REACTORS
330
253
102
}
330
253
100
AcDbXrecord
280
     1
102
RTVSPropertyOp0
 70
     1
102
RTVSPropertyOp1
 70
     1
102
RTVSPropertyOp2
 70
     1
102
RTVSPropertyOp3
 70
     1
102
RTVSPropertyOp4
 70
     1
102
RTVSPropertyOp5
 70
     1
102
RTVSPropertyOp6
 70
     1
102
RTVSPropertyOp7
 70
     1
102
RTVSPropertyOp8
 70
     1
102
RTVSPropertyOp9
 70
     1
102
RTVSPropertyOp10
 70
     1
102
RTVSPropertyOp11
 70
     1
102
RTVSPropertyOp12
 70
     1
102
RTVSPropertyOp13
 70
     1
102
RTVSPropertyOp14
 70
     1
102
RTVSPropertyOp15
 70
     1
102
RTVSPropertyOp16
 70
     1
102
RTVSPropertyOp17
 70
     1
102
RTVSPropertyOp18
 70
     1
102
RTVSPropertyOp19
 70
     1
102
RTVSPropertyOp20
 70
     1
102
RTVSPropertyOp21
 70
     1
102
RTVSPropertyOp22
 70
     1
102
RTVSPropertyOp23
 70
     1
102
RTVSPropertyOp24
 70
     1
102
RTVSPropertyOp25
 70
     1
102
RTVSPropertyOp26
 70
     1
102
RTVSPropertyOp27
 70
     1
102
RTVSPropertyOp28
 70
     1
102
RTVSPropertyOp29
 70
     1
102
RTVSPropertyOp30
 70
     1
102
RTVSPropertyOp31
 70
     1
102
RTVSPropertyOp32
 70
     1
  0
XRECORD
  5
258
102
{ACAD_REACTORS
330
257
102
}
330
257
100
AcDbXrecord
280
     1
102
RTVSPropertyOp0
 70
     1
102
RTVSPropertyOp1
 70
     1
102
RTVSPropertyOp2
 70
     1
102
RTVSPropertyOp3
 70
     1
102
RTVSPropertyOp4
 70
     1
102
RTVSPropertyOp5
 70
     1
102
RTVSPropertyOp6
 70
     1
102
RTVSPropertyOp7
 70
     1
102
RTVSPropertyOp8
 70
     1
102
RTVSPropertyOp9
 70
     1
102
RTVSPropertyOp10
 70
     1
102
RTVSPropertyOp11
 70
     1
102
RTVSPropertyOp12
 70
     1
102
RTVSPropertyOp13
 70
     1
102
RTVSPropertyOp14
 70
     1
102
RTVSPropertyOp15
 70
     1
102
RTVSPropertyOp16
 70
     1
102
RTVSPropertyOp17
 70
     1
102
RTVSPropertyOp18
 70
     1
102
RTVSPropertyOp19
 70
     1
102
RTVSPropertyOp20
 70
     1
102
RTVSPropertyOp21
 70
     1
102
RTVSPropertyOp22
 70
     1
102
RTVSPropertyOp23
 70
     1
102
RTVSPropertyOp24
 70
     1
102
RTVSPropertyOp25
 70
     1
102
RTVSPropertyOp26
 70
     1
102
RTVSPropertyOp27
 70
     1
102
RTVSPropertyOp28
 70
     1
102
RTVSPropertyOp29
 70
     1
102
RTVSPropertyOp30
 70
     1
102
RTVSPropertyOp31
 70
     1
102
RTVSPropertyOp32
 70
     1
  0
XRECORD
  5
260
102
{ACAD_REACTORS
330
25F
102
}
330
25F
100
AcDbXrecord
280
     1
102
RTVSPropertyOp0
 70
     1
102
RTVSPropertyOp1
 70
     1
102
RTVSPropertyOp2
 70
     1
102
RTVSPropertyOp3
 70
     1
102
RTVSPropertyOp4
 70
     1
102
RTVSPropertyOp5
 70
     1
102
RTVSPropertyOp6
 70
     1
102
RTVSPropertyOp7
 70
     1
102
RTVSPropertyOp8
 70
     1
102
RTVSPropertyOp9
 70
     1
102
RTVSPropertyOp10
 70
     1
102
RTVSPropertyOp11
 70
     1
102
RTVSPropertyOp12
 70
     1
102
RTVSPropertyOp13
 70
     1
102
RTVSPropertyOp14
 70
     1
102
RTVSPropertyOp15
 70
     1
102
RTVSPropertyOp16
 70
     1
102
RTVSPropertyOp17
 70
     1
102
RTVSPropertyOp18
 70
     1
102
RTVSPropertyOp19
 70
     1
102
RTVSPropertyOp20
 70
     1
102
RTVSPropertyOp21
 70
     1
102
RTVSPropertyOp22
 70
     1
102
RTVSPropertyOp23
 70
     1
102
RTVSPropertyOp24
 70
     1
102
RTVSPropertyOp25
 70
     1
102
RTVSPropertyOp26
 70
     1
102
RTVSPropertyOp27
 70
     1
102
RTVSPropertyOp28
 70
     1
102
RTVSPropertyOp29
 70
     1
102
RTVSPropertyOp30
 70
     1
102
RTVSPropertyOp31
 70
     1
102
RTVSPropertyOp32
 70
     1
  0
XRECORD
  5
268
102
{ACAD_REACTORS
330
267
102
}
330
267
100
AcDbXrecord
280
     1
102
RTVSPropertyOp0
 70
     1
102
RTVSPropertyOp1
 70
     1
102
RTVSPropertyOp2
 70
     1
102
RTVSPropertyOp3
 70
     1
102
RTVSPropertyOp4
 70
     1
102
RTVSPropertyOp5
 70
     1
102
RTVSPropertyOp6
 70
     1
102
RTVSPropertyOp7
 70
     1
102
RTVSPropertyOp8
 70
     1
102
RTVSPropertyOp9
 70
     1
102
RTVSPropertyOp10
 70
     1
102
RTVSPropertyOp11
 70
     1
102
RTVSPropertyOp12
 70
     1
102
RTVSPropertyOp13
 70
     1
102
RTVSPropertyOp14
 70
     1
102
RTVSPropertyOp15
 70
     1
102
RTVSPropertyOp16
 70
     1
102
RTVSPropertyOp17
 70
     1
102
RTVSPropertyOp18
 70
     1
102
RTVSPropertyOp19
 70
     1
102
RTVSPropertyOp20
 70
     1
102
RTVSPropertyOp21
 70
     1
102
RTVSPropertyOp22
 70
     1
102
RTVSPropertyOp23
 70
     1
102
RTVSPropertyOp24
 70
     1
102
RTVSPropertyOp25
 70
     1
102
RTVSPropertyOp26
 70
     1
102
RTVSPropertyOp27
 70
     1
102
RTVSPropertyOp28
 70
     1
102
RTVSPropertyOp29
 70
     1
102
RTVSPropertyOp30
 70
     1
102
RTVSPropertyOp31
 70
     1
102
RTVSPropertyOp32
 70
     1
  0
XRECORD
  5
25C
102
{ACAD_REACTORS
330
25B
102
}
330
25B
100
AcDbXrecord
280
     1
102
RTVSPropertyOp0
 70
     1
102
RTVSPropertyOp1
 70
     1
102
RTVSPropertyOp2
 70
     1
102
RTVSPropertyOp3
 70
     1
102
RTVSPropertyOp4
 70
     1
102
RTVSPropertyOp5
 70
     1
102
RTVSPropertyOp6
 70
     1
102
RTVSPropertyOp7
 70
     1
102
RTVSPropertyOp8
 70
     1
102
RTVSPropertyOp9
 70
     1
102
RTVSPropertyOp10
 70
     1
102
RTVSPropertyOp11
 70
     1
102
RTVSPropertyOp12
 70
     1
102
RTVSPropertyOp13
 70
     1
102
RTVSPropertyOp14
 70
     1
102
RTVSPropertyOp15
 70
     1
102
RTVSPropertyOp16
 70
     1
102
RTVSPropertyOp17
 70
     1
102
RTVSPropertyOp18
 70
     1
102
RTVSPropertyOp19
 70
     1
102
RTVSPropertyOp20
 70
     1
102
RTVSPropertyOp21
 70
     1
102
RTVSPropertyOp22
 70
     1
102
RTVSPropertyOp23
 70
     1
102
RTVSPropertyOp24
 70
     1
102
RTVSPropertyOp25
 70
     1
102
RTVSPropertyOp26
 70
     1
102
RTVSPropertyOp27
 70
     1
102
RTVSPropertyOp28
 70
     1
102
RTVSPropertyOp29
 70
     1
102
RTVSPropertyOp30
 70
     1
102
RTVSPropertyOp31
 70
     1
102
RTVSPropertyOp32
 70
     1
  0
XRECORD
  5
25E
102
{ACAD_REACTORS
330
25D
102
}
330
25D
100
AcDbXrecord
280
     1
102
RTVSPropertyOp0
 70
     1
102
RTVSPropertyOp1
 70
     1
102
RTVSPropertyOp2
 70
     1
102
RTVSPropertyOp3
 70
     1
102
RTVSPropertyOp4
 70
     1
102
RTVSPropertyOp5
 70
     1
102
RTVSPropertyOp6
 70
     1
102
RTVSPropertyOp7
 70
     1
102
RTVSPropertyOp8
 70
     1
102
RTVSPropertyOp9
 70
     1
102
RTVSPropertyOp10
 70
     1
102
RTVSPropertyOp11
 70
     1
102
RTVSPropertyOp12
 70
     1
102
RTVSPropertyOp13
 70
     1
102
RTVSPropertyOp14
 70
     1
102
RTVSPropertyOp15
 70
     1
102
RTVSPropertyOp16
 70
     1
102
RTVSPropertyOp17
 70
     1
102
RTVSPropertyOp18
 70
     1
102
RTVSPropertyOp19
 70
     1
102
RTVSPropertyOp20
 70
     1
102
RTVSPropertyOp21
 70
     1
102
RTVSPropertyOp22
 70
     1
102
RTVSPropertyOp23
 70
     1
102
RTVSPropertyOp24
 70
     1
102
RTVSPropertyOp25
 70
     1
102
RTVSPropertyOp26
 70
     1
102
RTVSPropertyOp27
 70
     1
102
RTVSPropertyOp28
 70
     1
102
RTVSPropertyOp29
 70
     1
102
RTVSPropertyOp30
 70
     1
102
RTVSPropertyOp31
 70
     1
102
RTVSPropertyOp32
 70
     1
  0
XRECORD
  5
266
102
{ACAD_REACTORS
330
265
102
}
330
265
100
AcDbXrecord
280
     1
102
RTVSPropertyOp0
 70
     1
102
RTVSPropertyOp1
 70
     1
102
RTVSPropertyOp2
 70
     1
102
RTVSPropertyOp3
 70
     1
102
RTVSPropertyOp4
 70
     1
102
RTVSPropertyOp5
 70
     1
102
RTVSPropertyOp6
 70
     1
102
RTVSPropertyOp7
 70
     1
102
RTVSPropertyOp8
 70
     1
102
RTVSPropertyOp9
 70
     1
102
RTVSPropertyOp10
 70
     1
102
RTVSPropertyOp11
 70
     1
102
RTVSPropertyOp12
 70
     1
102
RTVSPropertyOp13
 70
     1
102
RTVSPropertyOp14
 70
     1
102
RTVSPropertyOp15
 70
     1
102
RTVSPropertyOp16
 70
     1
102
RTVSPropertyOp17
 70
     1
102
RTVSPropertyOp18
 70
     1
102
RTVSPropertyOp19
 70
     1
102
RTVSPropertyOp20
 70
     1
102
RTVSPropertyOp21
 70
     1
102
RTVSPropertyOp22
 70
     1
102
RTVSPropertyOp23
 70
     1
102
RTVSPropertyOp24
 70
     1
102
RTVSPropertyOp25
 70
     1
102
RTVSPropertyOp26
 70
     1
102
RTVSPropertyOp27
 70
     1
102
RTVSPropertyOp28
 70
     1
102
RTVSPropertyOp29
 70
     1
102
RTVSPropertyOp30
 70
     1
102
RTVSPropertyOp31
 70
     1
102
RTVSPropertyOp32
 70
     1
  0
XRECORD
  5
24A
102
{ACAD_REACTORS
330
249
102
}
330
249
100
AcDbXrecord
280
     1
102
RTVSPropertyOp0
 70
     1
102
RTVSPropertyOp1
 70
     1
102
RTVSPropertyOp2
 70
     1
102
RTVSPropertyOp3
 70
     1
102
RTVSPropertyOp4
 70
     1
102
RTVSPropertyOp5
 70
     1
102
RTVSPropertyOp6
 70
     1
102
RTVSPropertyOp7
 70
     1
102
RTVSPropertyOp8
 70
     1
102
RTVSPropertyOp9
 70
     1
102
RTVSPropertyOp10
 70
     1
102
RTVSPropertyOp11
 70
     1
102
RTVSPropertyOp12
 70
     1
102
RTVSPropertyOp13
 70
     1
102
RTVSPropertyOp14
 70
     1
102
RTVSPropertyOp15
 70
     1
102
RTVSPropertyOp16
 70
     1
102
RTVSPropertyOp17
 70
     1
102
RTVSPropertyOp18
 70
     1
102
RTVSPropertyOp19
 70
     1
102
RTVSPropertyOp20
 70
     1
102
RTVSPropertyOp21
 70
     1
102
RTVSPropertyOp22
 70
     1
102
RTVSPropertyOp23
 70
     1
102
RTVSPropertyOp24
 70
     1
102
RTVSPropertyOp25
 70
     1
102
RTVSPropertyOp26
 70
     1
102
RTVSPropertyOp27
 70
     1
102
RTVSPropertyOp28
 70
     1
102
RTVSPropertyOp29
 70
     1
102
RTVSPropertyOp30
 70
     1
102
RTVSPropertyOp31
 70
     1
102
RTVSPropertyOp32
 70
     1
  0
XRECORD
  5
24C
102
{ACAD_REACTORS
330
24B
102
}
330
24B
100
AcDbXrecord
280
     1
102
RTVSPropertyOp0
 70
     1
102
RTVSPropertyOp1
 70
     1
102
RTVSPropertyOp2
 70
     1
102
RTVSPropertyOp3
 70
     1
102
RTVSPropertyOp4
 70
     1
102
RTVSPropertyOp5
 70
     1
102
RTVSPropertyOp6
 70
     1
102
RTVSPropertyOp7
 70
     1
102
RTVSPropertyOp8
 70
     1
102
RTVSPropertyOp9
 70
     1
102
RTVSPropertyOp10
 70
     1
102
RTVSPropertyOp11
 70
     1
102
RTVSPropertyOp12
 70
     1
102
RTVSPropertyOp13
 70
     1
102
RTVSPropertyOp14
 70
     1
102
RTVSPropertyOp15
 70
     1
102
RTVSPropertyOp16
 70
     1
102
RTVSPropertyOp17
 70
     1
102
RTVSPropertyOp18
 70
     1
102
RTVSPropertyOp19
 70
     1
102
RTVSPropertyOp20
 70
     1
102
RTVSPropertyOp21
 70
     1
102
RTVSPropertyOp22
 70
     1
102
RTVSPropertyOp23
 70
     1
102
RTVSPropertyOp24
 70
     1
102
RTVSPropertyOp25
 70
     1
102
RTVSPropertyOp26
 70
     1
102
RTVSPropertyOp27
 70
     1
102
RTVSPropertyOp28
 70
     1
102
RTVSPropertyOp29
 70
     1
102
RTVSPropertyOp30
 70
     1
102
RTVSPropertyOp31
 70
     1
102
RTVSPropertyOp32
 70
     1
  0
XRECORD
  5
24E
102
{ACAD_REACTORS
330
24D
102
}
330
24D
100
AcDbXrecord
280
     1
102
RTVSPropertyOp0
 70
     1
102
RTVSPropertyOp1
 70
     1
102
RTVSPropertyOp2
 70
     1
102
RTVSPropertyOp3
 70
     1
102
RTVSPropertyOp4
 70
     1
102
RTVSPropertyOp5
 70
     1
102
RTVSPropertyOp6
 70
     1
102
RTVSPropertyOp7
 70
     1
102
RTVSPropertyOp8
 70
     1
102
RTVSPropertyOp9
 70
     1
102
RTVSPropertyOp10
 70
     1
102
RTVSPropertyOp11
 70
     1
102
RTVSPropertyOp12
 70
     1
102
RTVSPropertyOp13
 70
     1
102
RTVSPropertyOp14
 70
     1
102
RTVSPropertyOp15
 70
     1
102
RTVSPropertyOp16
 70
     1
102
RTVSPropertyOp17
 70
     1
102
RTVSPropertyOp18
 70
     1
102
RTVSPropertyOp19
 70
     1
102
RTVSPropertyOp20
 70
     1
102
RTVSPropertyOp21
 70
     1
102
RTVSPropertyOp22
 70
     1
102
RTVSPropertyOp23
 70
     1
102
RTVSPropertyOp24
 70
     1
102
RTVSPropertyOp25
 70
     1
102
RTVSPropertyOp26
 70
     1
102
RTVSPropertyOp27
 70
     1
102
RTVSPropertyOp28
 70
     1
102
RTVSPropertyOp29
 70
     1
102
RTVSPropertyOp30
 70
     1
102
RTVSPropertyOp31
 70
     1
102
RTVSPropertyOp32
 70
     1
  0
XRECORD
  5
250
102
{ACAD_REACTORS
330
24F
102
}
330
24F
100
AcDbXrecord
280
     1
102
RTVSPropertyOp0
 70
     1
102
RTVSPropertyOp1
 70
     1
102
RTVSPropertyOp2
 70
     1
102
RTVSPropertyOp3
 70
     1
102
RTVSPropertyOp4
 70
     1
102
RTVSPropertyOp5
 70
     1
102
RTVSPropertyOp6
 70
     1
102
RTVSPropertyOp7
 70
     1
102
RTVSPropertyOp8
 70
     1
102
RTVSPropertyOp9
 70
     1
102
RTVSPropertyOp10
 70
     1
102
RTVSPropertyOp11
 70
     1
102
RTVSPropertyOp12
 70
     1
102
RTVSPropertyOp13
 70
     1
102
RTVSPropertyOp14
 70
     1
102
RTVSPropertyOp15
 70
     1
102
RTVSPropertyOp16
 70
     1
102
RTVSPropertyOp17
 70
     1
102
RTVSPropertyOp18
 70
     1
102
RTVSPropertyOp19
 70
     1
102
RTVSPropertyOp20
 70
     1
102
RTVSPropertyOp21
 70
     1
102
RTVSPropertyOp22
 70
     1
102
RTVSPropertyOp23
 70
     1
102
RTVSPropertyOp24
 70
     1
102
RTVSPropertyOp25
 70
     1
102
RTVSPropertyOp26
 70
     1
102
RTVSPropertyOp27
 70
     1
102
RTVSPropertyOp28
 70
     1
102
RTVSPropertyOp29
 70
     1
102
RTVSPropertyOp30
 70
     1
102
RTVSPropertyOp31
 70
     1
102
RTVSPropertyOp32
 70
     1
  0
XRECORD
  5
264
102
{ACAD_REACTORS
330
263
102
}
330
263
100
AcDbXrecord
280
     1
102
RTVSPropertyOp0
 70
     1
102
RTVSPropertyOp1
 70
     1
102
RTVSPropertyOp2
 70
     1
102
RTVSPropertyOp3
 70
     1
102
RTVSPropertyOp4
 70
     1
102
RTVSPropertyOp5
 70
     1
102
RTVSPropertyOp6
 70
     1
102
RTVSPropertyOp7
 70
     1
102
RTVSPropertyOp8
 70
     1
102
RTVSPropertyOp9
 70
     1
102
RTVSPropertyOp10
 70
     1
102
RTVSPropertyOp11
 70
     1
102
RTVSPropertyOp12
 70
     1
102
RTVSPropertyOp13
 70
     1
102
RTVSPropertyOp14
 70
     1
102
RTVSPropertyOp15
 70
     1
102
RTVSPropertyOp16
 70
     1
102
RTVSPropertyOp17
 70
     1
102
RTVSPropertyOp18
 70
     1
102
RTVSPropertyOp19
 70
     1
102
RTVSPropertyOp20
 70
     1
102
RTVSPropertyOp21
 70
     1
102
RTVSPropertyOp22
 70
     1
102
RTVSPropertyOp23
 70
     1
102
RTVSPropertyOp24
 70
     1
102
RTVSPropertyOp25
 70
     1
102
RTVSPropertyOp26
 70
     1
102
RTVSPropertyOp27
 70
     1
102
RTVSPropertyOp28
 70
     1
102
RTVSPropertyOp29
 70
     1
102
RTVSPropertyOp30
 70
     1
102
RTVSPropertyOp31
 70
     1
102
RTVSPropertyOp32
 70
     1
  0
XRECORD
  5
25A
102
{ACAD_REACTORS
330
259
102
}
330
259
100
AcDbXrecord
280
     1
102
RTVSPropertyOp0
 70
     1
102
RTVSPropertyOp1
 70
     1
102
RTVSPropertyOp2
 70
     1
102
RTVSPropertyOp3
 70
     1
102
RTVSPropertyOp4
 70
     1
102
RTVSPropertyOp5
 70
     1
102
RTVSPropertyOp6
 70
     1
102
RTVSPropertyOp7
 70
     1
102
RTVSPropertyOp8
 70
     1
102
RTVSPropertyOp9
 70
     1
102
RTVSPropertyOp10
 70
     1
102
RTVSPropertyOp11
 70
     1
102
RTVSPropertyOp12
 70
     1
102
RTVSPropertyOp13
 70
     1
102
RTVSPropertyOp14
 70
     1
102
RTVSPropertyOp15
 70
     1
102
RTVSPropertyOp16
 70
     1
102
RTVSPropertyOp17
 70
     1
102
RTVSPropertyOp18
 70
     1
102
RTVSPropertyOp19
 70
     1
102
RTVSPropertyOp20
 70
     1
102
RTVSPropertyOp21
 70
     1
102
RTVSPropertyOp22
 70
     1
102
RTVSPropertyOp23
 70
     1
102
RTVSPropertyOp24
 70
     1
102
RTVSPropertyOp25
 70
     1
102
RTVSPropertyOp26
 70
     1
102
RTVSPropertyOp27
 70
     1
102
RTVSPropertyOp28
 70
     1
102
RTVSPropertyOp29
 70
     1
102
RTVSPropertyOp30
 70
     1
102
RTVSPropertyOp31
 70
     1
102
RTVSPropertyOp32
 70
     1
  0
XRECORD
  5
262
102
{ACAD_REACTORS
330
261
102
}
330
261
100
AcDbXrecord
280
     1
102
RTVSPropertyOp0
 70
     1
102
RTVSPropertyOp1
 70
     1
102
RTVSPropertyOp2
 70
     1
102
RTVSPropertyOp3
 70
     1
102
RTVSPropertyOp4
 70
     1
102
RTVSPropertyOp5
 70
     1
102
RTVSPropertyOp6
 70
     1
102
RTVSPropertyOp7
 70
     1
102
RTVSPropertyOp8
 70
     1
102
RTVSPropertyOp9
 70
     1
102
RTVSPropertyOp10
 70
     1
102
RTVSPropertyOp11
 70
     1
102
RTVSPropertyOp12
 70
     1
102
RTVSPropertyOp13
 70
     1
102
RTVSPropertyOp14
 70
     1
102
RTVSPropertyOp15
 70
     1
102
RTVSPropertyOp16
 70
     1
102
RTVSPropertyOp17
 70
     1
102
RTVSPropertyOp18
 70
     1
102
RTVSPropertyOp19
 70
     1
102
RTVSPropertyOp20
 70
     1
102
RTVSPropertyOp21
 70
     1
102
RTVSPropertyOp22
 70
     1
102
RTVSPropertyOp23
 70
     1
102
RTVSPropertyOp24
 70
     1
102
RTVSPropertyOp25
 70
     1
102
RTVSPropertyOp26
 70
     1
102
RTVSPropertyOp27
 70
     1
102
RTVSPropertyOp28
 70
     1
102
RTVSPropertyOp29
 70
     1
102
RTVSPropertyOp30
 70
     1
102
RTVSPropertyOp31
 70
     1
102
RTVSPropertyOp32
 70
     1
  0
ENDSEC
  0
EOF
